Ссылка на приватное зеркало всего за 1$. Внимание количество ограничено!!!

iTunes

iTunes

iTunes

1

iTunes

iTunes

iTunes

iTunes

iTunes

30
pack

$ от Little Big

ВАЖНО

!!Акция!!

Alien_RageХит недели

RePack

Resident Evil 21

ИГРА 18+

pack

RePack

jed

!!Акция!!

Alien_Rage

RePack

fifa19

RePack

Assassins Creed: Odyssey

RePack

NEED FOR SPEED™ PAYBACK

4 сезон

9 сезон

Бесстыжие 9 сезон

Все сериалы

все сериалы на PB.wtf

RePack

FAR CRY 5
  

Обнажённая / Bare (Наталия Лейте) [2015, драма, WEB-DL 720p] Любительский (одноголосый) [datynet] pb.wtf

Обнажённая через торрент pb.wtf

Размер: 2.91 GB | Добавлен: 4 года 7 мес. назад | Торрент скачан:267 раз
Скачать  

12-11-2015 23:35 Обнажённая Скачать торрент  

Обнажённая / Bare

  • Год выхода: 2015
  • Жанр: драма
  • Страна: США
  • Продолжительность: 01:30:46
  • Перевод: Любительский (одноголосый) [datynet]
  • Cубтитры: русские [lucky_ann, peyngel, anastasia_barrr и NikkieMickey], английские
  • Режиссер: Наталия Лейте
  • В ролях:

    Дианна Агрон (Sarah Barton), Пас де ла Уэрта (Pepper), Крис Зилка (Haden), Луиса Краузе (Lucille Jacobs), Mary Price Moore (Linda Barton), Лора Каннингэм (Jaz), Alexandra Roxo (Ginger), Трэвис Хаммер (Billy), Келли Леваллен (Jenny), Келли Питтман (Diana), Anthony Michael Jarvis (Jack), Луис Бордонада (Carlos)


  • Драма о молодой девушке из Невады, Саре, которая завязывает романтические отношения с мистической женщиной Пеппер, и перед ней открывается новый мир, полный наркотиков, алкоголя и стриптиз клубов.

  • Качество: WEB-DL 720p
  • Формат: MKV
  • Видео кодек: AVC
  • Аудио кодек: AC3, MP3
  • Видео: AVC, 1280x536 (2.40:1), 3852 kbps, 23,976 fps, 0,234 bpp
  • Аудио №1: русский / MP3 / 2.0 / 44,1 kHz / 256 kbps / |VO, [datynet]|
  • Аудио №2: английский / AC3 / 5.1 / 48 kHz / 384 kbps / 16 bit
  • Навигация по главам: есть

    Код:

    General
    Unique ID                                : 182139681225320918584837216064748416923 (0x8906D39CEDDE26D884019778D1746F9B)
    Complete name                            : H:\Bare.2015.L1.WEB-DL.720p.mkv
    Format                                   : Matroska
    Format version                           : Version 2
    File size                                : 2.91 GiB
    Duration                                 : 1h 30mn
    Overall bit rate                         : 4 584 Kbps
    Encoded date                             : UTC 2015-11-12 15:39:47
    Writing application                      : mkvmerge v7.8.0 ('River Man') 32bit built on Apr  3 2015 12:11:22
    Writing library                          : libebml v1.3.1 + libmatroska v1.4.2

    Video
    ID                                       : 1
    Format                                   : AVC
    Format/Info                              : Advanced Video Codec
    Format profile                           : Main@L3.1
    Format settings, CABAC                   : No
    Format settings, ReFrames                : 2 frames
    Codec ID                                 : V_MPEG4/ISO/AVC
    Duration                                 : 1h 30mn
    Bit rate                                 : 3 853 Kbps
    Width                                    : 1 280 pixels
    Height                                   : 536 pixels
    Display aspect ratio                     : 2.40:1
    Frame rate                               : 23.976 fps
    Color space                              : YUV
    Chroma subsampling                       : 4:2:0
    Bit depth                                : 8 bits
    Scan type                                : Progressive
    Bits/(Pixel*Frame)                       : 0.234
    Stream size                              : 2.44 GiB (84%)
    Language                                 : English
    Default                                  : Yes
    Forced                                   : No
    Color primaries                          : BT.709-5, BT.1361, IEC 61966-2-4, SMPTE RP177
    Transfer characteristics                 : BT.709-5, BT.1361
    Matrix coefficients                      : BT.709-5, BT.1361, IEC 61966-2-4 709, SMPTE RP177

    Audio #1
    ID                                       : 2
    Format                                   : MPEG Audio
    Format version                           : Version 1
    Format profile                           : Layer 3
    Codec ID                                 : A_MPEG/L3
    Codec ID/Hint                            : MP3
    Duration                                 : 1h 30mn
    Bit rate mode                            : Constant
    Bit rate                                 : 256 Kbps
    Channel(s)                               : 2 channels
    Sampling rate                            : 44.1 KHz
    Compression mode                         : Lossy
    Stream size                              : 166 MiB (6%)
    Language                                 : Russian
    Default                                  : Yes
    Forced                                   : No

    Audio #2
    ID                                       : 3
    Format                                   : AC-3
    Format/Info                              : Audio Coding 3
    Mode extension                           : CM (complete main)
    Codec ID                                 : A_AC3
    Duration                                 : 1h 30mn
    Bit rate mode                            : Constant
    Bit rate                                 : 384 Kbps
    Channel(s)                               : 6 channels
    Channel positions                        : Front: L C R, Side: L R, LFE
    Sampling rate                            : 48.0 KHz
    Bit depth                                : 16 bits
    Compression mode                         : Lossy
    Stream size                              : 249 MiB (8%)
    Language                                 : English
    Default                                  : No
    Forced                                   : No

    Text #1
    ID                                       : 4
    Format                                   : UTF-8
    Codec ID                                 : S_TEXT/UTF8
    Codec ID/Info                            : UTF-8 Plain Text
    Language                                 : Russian
    Default                                  : No
    Forced                                   : No

    Text #2
    ID                                       : 5
    Format                                   : UTF-8
    Codec ID                                 : S_TEXT/UTF8
    Codec ID/Info                            : UTF-8 Plain Text
    Language                                 : English
    Default                                  : No
    Forced                                   : No

    Menu
    00:00:00.000                             : en:1
    00:10:24.000                             : en:2
    00:20:34.000                             : en:3
    00:27:42.000                             : en:4
    00:38:14.000                             : en:5
    00:51:35.000                             : en:6
    01:03:19.000                             : en:7
    01:12:36.000                             : en:8
    01:19:35.000                             : en:9
    01:28:16.000                             : en:10

    Скриншоты:


    © Оформление by -Lexx- pb.wtf



  • Скачать Обнажённая через торрент http://pic.kartinco.top/images/6/stazu.jpg Скачать фильм Обнажённая через торрент бесплантно в хорошем качестве qw.png Драма о молодой девушке из Невады, Саре, которая завязывает романтические отношения с мистической женщиной Пеппер, и перед ней ... 8.2 10 15
    Торрент: Зарегистрирован [2015-11-12 23:35] · скачан: 267 раз
    Статус: T временная
    Размер: 2.91 GB
    Как cкачать? Как скачать Обнажённая через торрент | qTorrent

    % Раздел Тема Автор DL S | L
    T Фильмы 2015 (Звук TS, Cam, VO, DVO) [ 1.37 GB ] Обнажённая / Bare [2015 WEB-DLRip Любительский + SubRus] makarevich Скачать
    1 | 0
    Фильмы без перевода [ 1.4 GB ] Обнажённая / Bare [2015 WEB-DLRip] makarevich Скачать
    1 | 0
    Гей клубника [ 1.27 GB ] Обнаженное собрание / Bare Reunion [2006 Anal / Oral Sex Bareback Twinks Cumshot Sucking Big Balls Big Cocks Group DVDRip] siolon Скачать
    1 | 0
    Разное [ 972 MB ] Bare Bowling / Обнажённый боулинг Majestro Скачать
    1 | 0

    28-11-2019 20:33  

    Отключить всю рекламу на сайте

    13-11-2015 09:43 Обнажённая Скачать торрент  

    Описание доставило rofl roflpb.wtf



    13-11-2015 15:17 Обнажённая Скачать торрент  

    тему сисек раскрыл первый же скриншотpb.wtf



    14-11-2015 13:50 Обнажённая Скачать торрент  

    как узнать, будет в переводе или нет?pb.wtf



      Дорогой пользователь! Огромная просьба, поблагодарите релизера, оцените раздачу и оставьте свои комментарий, если Вы скачали Обнажённая через торрент бесплатно! Внесите свою лепту в развитие PiratBit!
      Комментировать посты могут только пользователи прошедшие не сложную регистрацию
      Показать сообщения:    

      Обнажённая через торрент
      Скачать бесплатно Обнажённая
      Обнажённая скачать торрент
      Обнажённая смотреть онлайн
      Cкачать фильм Обнажённая бесплатно
      Обнажённая скачать торрент в хорошем качестве
      Обнажённая смотреть онлайн бесплатно в хорошем качестве


      Вы не можете начинать темы
      Вы не можете отвечать на сообщения
      Вы не можете редактировать свои сообщения
      Вы не можете удалять свои сообщения
      Вы не можете голосовать в опросах
      Вы не можете прикреплять файлы к сообщениям
      Вы можете скачивать файлы