новый адрес пиратбит piratbit
Мега распродажа FORZA HORIZON 4 ULTIMATE+ВСЕ DLC+ОНЛАЙН всего за 499р. 349 руб. (супер цена). Внимание количество ограничено!!!

iTunes

1+1

iTunes

мы

iTunes

1

iTunes

Чернобыль

iTunes

Ральф против интернета

Лицензия

ПШазам

Лицензия

Игра престолов

Лицензия

30
pack

ВАЖНО

!!Акция!!

Alien_RageХит недели

RePack

Resident Evil 21

ИГРА 18+

pack

RePack

Metro:Exodus

!!Акция!!

Alien_Rage

RePack

fifa19

RePack

Assassins Creed: Odyssey

RePack

NEED FOR SPEED™ PAYBACK

3 сезон

9 сезон

Бесстыжие 9 сезон

Все сериалы

все сериалы на PB.wtf

RePack

FAR CRY 5
Ребята, катастрофически не хватает 1900р. для оплаты серверов за Октябрь (всвязи с блокировками трафик упал в 3 раза), 1-2р., выручайте.
  

Тарас Шевченко (Игорь Савченко) [1951, СССР, драма, биография, история, DVDRip от AVP Studio] pb.wtf

Тарас Шевченко через торрент pb.wtf

Размер: 1.46 GB | Добавлен: 4 года назад | Торрент скачан:21 раз
Скачать  

13-11-2015 09:54 Тарас Шевченко Скачать торрент  

Тарас Шевченко
Страна: СССР
Производство: Киевская к/ст

Жанр: драма, биография, история
Год выпуска: 1951
Продолжительность: 01:48:00

Перевод: Не требуется
Cубтитры: нет
Оригинальная аудиодорожка: русский

Режиссер: Игорь Савченко

В ролях:
Сергей Бондарчук, Владимир Честноков, Николай Тимофеев, Гнат (Игнатий) Юра, Иван Переверзев, Наталья Ужвий, Евгений Самойлов, Михаил Кузнецов, Алексей Консовский, Латиф Файзиев, Анатолий Чемодуров, Марк Бернес, Дмитрий Милютенко, Марианна Стриженова, Лаврентий Масоха, Павел Шпрингфельд, Михаил Трояновский, Михаил Названов, Александр Хвыля, Гарэн Жуковская, Михаил Высоцкий, Геннадий Юдин, Леонид Кмит, Александр Баранов, Константин Сорокин, Григорий Шпигель, Владимир Сошальский, Анна Кушниренко, Федор Гладков, Юрий Критенко...
Полный список актёров

Описание:
Биографический фильм о жизни Тараса Шевченко.
Лето 1841 года. Убит Лермонтов. Весть об этом доходит до скромной мансарды Петербургской Академии художеств, где живет и работает молодой художник и поэт Тарас Шевченко. Выросший в крестьянской украинской семье, познавший все тяготы крепостной жизни, Шевченко уже в годы учения четко и ясно определяет задачи подлинного искусства-служить интересам народа. Окончив Академию, Шевченко едет на Украину. Стихи Тараса проникнуты любовью к простым людям. Помещики-националисты, главари либерально Кирилло-Мефодиевского братства, пытаются «приручить» обезвредить прославленного поэта, но Шевченко навсегда сделал свой выбор-он на стороне народа, его защитник и певец. Гневное свободолюбивое творчество Тараса Шевченко известно всей России. Николай I ссылает поэта рядовым солдатом в далекий прикаспийский форт без права писать и рисовать. В трудные дни поэта поддерживает рядовой солдат-украинец Скобелев, польский революционер Сераковский, капитан Косарев, комендант крепости Усков. О его освобождении хлопочут Чернышевский и Добролюбов. И вот больной, постаревший Шевченко на свободе. Вместе с Чернышевским и Добролюбовым он мечтает о светлом будущем Родины, когда русский и украинский народы сбросят с себя цепи рабства.
«Тарас Шевченко» - последняя работа одного из крупнейших советских кинорежиссеров И.А.Савченко. Он умер в самом разгаре съемок, в декабре 1950 года, фильм заканчивали его ассистенты и ученики А.Алов и В.Наумов.
Первая роль в кино Николая Гринько (бунтарь).

Источник: DVD5 R5
Качество видео: DVDRip
Формат видео: AVI

Видео: 720x544 (4:3), 25 fps, XviD ~ 1734 kbps avg, 0.177 bit/pixel
Аудио: 48 kHz, Dolby Digital AC3 2.0, 192 kbps

Раздача от:
Общее
Полное имя : Taras.Shevchenko.1951.DVDRip_[New-team]_by_AVP_Studio.avi
Формат : AVI
Формат/Информация : Audio Video Interleave
Размер файла : 1,46 Гбайт
Продолжительность : 1 ч. 47 м.
Общий поток : 1936 Кбит/сек
Программа кодирования : VirtualDubMod 1.5.10.3 | www.virtualdub-fr.org || (build 2550/release)
Библиотека кодирования : VirtualDubMod build 2550/release

Видео
Идентификатор : 0
Формат : MPEG-4 Visual
Профиль формата : Advanced Simple@L5
Параметр BVOP формата : 1
Параметр QPel формата : Нет
Параметр GMC формата : Без точки перехода
Параметр матрицы формата : Выборочная
Идентификатор кодека : XVID
Идентификатор кодека/Подсказка : XviD
Продолжительность : 1 ч. 47 м.
Битрейт : 1734 Кбит/сек
Ширина : 720 пикселей
Высота : 544 пикселя
Соотношение сторон : 4:3
Частота кадров : 25,000 кадров/сек
Цветовое пространство : YUV
Субдискретизация насыщенности : 4:2:0
Битовая глубина : 8 бит
Тип развёртки : Прогрессивная
Метод сжатия : С потерями
Бит/(Пиксели*Кадры) : 0.177
Размер потока : 1,31 Гбайт (90%)
Библиотека кодирования : XviD 73

Аудио
Идентификатор : 1
Формат : AC-3
Формат/Информация : Audio Coding 3
Расширение режима : CM (complete main)
Параметр Endianness формата : Big
Идентификатор кодека : 2000
Продолжительность : 1 ч. 47 м.
Вид битрейта : Постоянный
Битрейт : 192 Кбит/сек
Каналы : 2 канала
Расположение каналов : Front: L R
Частота : 48,0 КГц
Метод сжатия : С потерями
Размер потока : 148 Мбайт (10%)
Выравнивание : Разделение по промежуткам
Продолжительность промежутка : 40 мс. (1,00 видеокадр)
Время предзагрузки промежутка : 500 мс
pb.wtf



Скачать Тарас Шевченко через торрент http://s020.radikal.ru/i719/1511/d4/9c8bbb32a3c6.png Скачать фильм Тарас Шевченко через торрент бесплантно в хорошем качестве Описание:Биографический фильм о жизни Тараса Шевченко.Лето 1841 года. Убит Лермонтов. Весть об этом доходит до скромной мансарды ... 5 10 1
Торрент: Зарегистрирован [2015-11-13 09:54] · скачан: 21 раз
Статус: √ проверено
Размер: 1.46 GB
Как cкачать? Как скачать Тарас Шевченко через торрент | qTorrent

% Раздел Тема Автор DL S | L
Кино СССР [ 1.46 GB ] Тарас Шевченко [1951 СССР биография история DVDRip-AVC от AVP Studio] AVP Studio Скачать
1 | 0
Кино СССР [ 751 MB ] Тарас Шевченко [1951 СССР биография история DVDRip от AVP Studio] AVP Studio Скачать
1 | 0


>> Регистрируемся здесь <<






Отзывы и комментарии о схеме читаем и пишем здесь: ---> Отзывы и комментарии о схеме

Новые благодарочки в телеграм довольных пользователей:
скриншот   скриншот   скриншот   скриншот   скриншот
    Дорогой пользователь! Огромная просьба, поблагодарите релизера, оцените раздачу и оставьте свои комментарий, если Вы скачали Тарас Шевченко через торрент бесплатно! Внесите свою лепту в развитие PiratBit!
    Комментировать посты могут только пользователи прошедшие не сложную регистрацию
    Показать сообщения:    

    Тарас Шевченко через торрент
    Скачать бесплатно Тарас Шевченко
    Тарас Шевченко скачать торрент
    Тарас Шевченко смотреть онлайн
    Cкачать фильм Тарас Шевченко бесплатно
    Тарас Шевченко скачать торрент в хорошем качестве
    Тарас Шевченко смотреть онлайн бесплатно в хорошем качестве


    Вы не можете начинать темы
    Вы не можете отвечать на сообщения
    Вы не можете редактировать свои сообщения
    Вы не можете удалять свои сообщения
    Вы не можете голосовать в опросах
    Вы не можете прикреплять файлы к сообщениям
    Вы можете скачивать файлы