новый адрес
Ссылка на приватное зеркало всего за 1$. Внимание количество ограничено!!!

iTunes

1+1

iTunes

мы

iTunes

1

iTunes

Чернобыль

iTunes

Ральф против интернета

Лицензия

ПШазам

Лицензия

Оно 2

Лицензия

30
pack

Вам бонус

ВАЖНО

!!Акция!!

Alien_RageХит недели

RePack

Resident Evil 21

ИГРА 18+

pack

RePack

jed

!!Акция!!

Alien_Rage

RePack

fifa19

RePack

Assassins Creed: Odyssey

RePack

NEED FOR SPEED™ PAYBACK

3 сезон

9 сезон

Бесстыжие 9 сезон

Все сериалы

все сериалы на PB.wtf

RePack

FAR CRY 5
Ребята, катастрофически не хватает 1900р. для оплаты серверов за Октябрь (всвязи с блокировками трафик упал в 3 раза), 1-2р., выручайте.
  

Спортивная честь (Владимир Петров) [1951, СССР, комедия, приключения, спорт, SATRip от AVP Studio] pb.wtf

Спортивная честь через торрент pb.wtf

Размер: 746 MB | Добавлен: 4 года назад | Торрент скачан:20 раз
Скачать  

13-11-2015 09:58 Спортивная честь Скачать торрент  

Спортивная честь
Страна: СССР
Производство: Мосфильм

Жанр: комедия, приключения, спорт
Год выпуска: 1951
Продолжительность: 01:40:41

Перевод: Не требуется
Cубтитры: нет
Оригинальная аудиодорожка: русский

Режиссер: Владимир Петров

В ролях:
Алексей Грибов, Геннадий Сергеев, Маргарита Лифанова, Лев Фричинский, Николай Крючков, В. Зотова, Вадим Синявский, Александр Дегтярь...
Полный список актёров

Описание:
Рабочий уральского завода Ветлугин становится членом московской футбольной команды «Турбина». Известный всей стране капитан и центральный нападающий «Турбины» Виталий Гринько ревностно относится к новичку и пытается опорочить простодушного футболиста. Вся команда принимает сторону новичка, критикует поведение капитана — и в игре с зарубежной командой одерживает победу. Первая роль в кино актера Олега Стриженова.

Источник: DVB
Качество видео: SATRip
Формат видео: AVI

Видео: 576x432 (4:3), 25 fps, XviD ~ 898 kbps avg, 0.144 bit/pixel
Аудио: 48 kHz, MP3 2.0, 128 kbps

Раздача от:
Общее
Полное имя : Sportivnaya.chest.1951.SATRip-745_[New-team]_by_AVP_Studio.avi
Формат : AVI
Формат/Информация : Audio Video Interleave
Размер файла : 746 Мбайт
Продолжительность : 1 ч. 40 м.
Общий поток : 1036 Кбит/сек
Программа кодирования : VirtualDubMod 1.5.10.3 | www.virtualdub-fr.org || (build 2550/release)
Библиотека кодирования : VirtualDubMod build 2550/release

Видео
Идентификатор : 0
Формат : MPEG-4 Visual
Профиль формата : Advanced Simple@L5
Параметр BVOP формата : 1
Параметр QPel формата : Нет
Параметр GMC формата : Без точки перехода
Параметр матрицы формата : Выборочная
Идентификатор кодека : XVID
Идентификатор кодека/Подсказка : XviD
Продолжительность : 1 ч. 40 м.
Битрейт : 898 Кбит/сек
Ширина : 576 пикселей
Высота : 432 пикселя
Соотношение сторон : 4:3
Частота кадров : 25,000 кадров/сек
Цветовое пространство : YUV
Субдискретизация насыщенности : 4:2:0
Битовая глубина : 8 бит
Тип развёртки : Прогрессивная
Метод сжатия : С потерями
Бит/(Пиксели*Кадры) : 0.144
Размер потока : 647 Мбайт (87%)
Библиотека кодирования : XviD 73

Аудио
Идентификатор : 1
Формат : MPEG Audio
Версия формата : Version 1
Профиль формата : Layer 3
Идентификатор кодека : 55
Идентификатор кодека/Подсказка : MP3
Продолжительность : 1 ч. 40 м.
Вид битрейта : Постоянный
Битрейт : 128 Кбит/сек
Каналы : 2 канала
Частота : 48,0 КГц
Метод сжатия : С потерями
Размер потока : 92,2 Мбайт (12%)
Выравнивание : Соединение по промежуткам
Продолжительность промежутка : 40 мс. (1,00 видеокадр)
Время предзагрузки промежутка : 504 мс.
Библиотека кодирования : LAME3.99r
Настройки программы : -m s -V 4 -q 2 -lowpass 17 -b 128
pb.wtf



Скачать Спортивная честь через торрент http://s018.radikal.ru/i521/1511/c5/77b618b3a2c6.png Скачать фильм Спортивная честь через торрент бесплантно в хорошем качестве Описание:Рабочий уральского завода Ветлугин становится членом московской футбольной команды «Турбина». Известный всей стране капитан и ... 10 10 1
Торрент: Зарегистрирован [2015-11-13 09:58] · скачан: 20 раз
Статус: √ проверено
Размер: 746 MB
Как cкачать? Как скачать Спортивная честь через торрент | qTorrent

% Раздел Тема Автор DL S | L
Кино СССР [ 1.46 GB ] Спортивная честь [1951 СССР SATRip-AVC от AVP Studio] AVP Studio Скачать
1 | 0
Кино СССР [ 1.46 GB ] Спортивная честь [1951 СССР SATRip от AVP Studio] AVP Studio Скачать
1 | 0
    Дорогой пользователь! Огромная просьба, поблагодарите релизера, оцените раздачу и оставьте свои комментарий, если Вы скачали Спортивная честь через торрент бесплатно! Внесите свою лепту в развитие PiratBit!
    Комментировать посты могут только пользователи прошедшие не сложную регистрацию
    Показать сообщения:    

    Спортивная честь через торрент
    Скачать бесплатно Спортивная честь
    Спортивная честь скачать торрент
    Спортивная честь смотреть онлайн
    Cкачать фильм Спортивная честь бесплатно
    Спортивная честь скачать торрент в хорошем качестве
    Спортивная честь смотреть онлайн бесплатно в хорошем качестве


    Вы не можете начинать темы
    Вы не можете отвечать на сообщения
    Вы не можете редактировать свои сообщения
    Вы не можете удалять свои сообщения
    Вы не можете голосовать в опросах
    Вы не можете прикреплять файлы к сообщениям
    Вы можете скачивать файлы