новый адрес
Ссылка на приватное зеркало всего за 1$. Внимание количество ограничено!!!

iTunes

1+1

iTunes

мы

iTunes

1

iTunes

Чернобыль

iTunes

Ральф против интернета

Лицензия

ПШазам

Лицензия

Оно 2

Лицензия

30
pack

Вам бонус

ВАЖНО

!!Акция!!

Alien_RageХит недели

RePack

Resident Evil 21

ИГРА 18+

pack

RePack

jed

!!Акция!!

Alien_Rage

RePack

fifa19

RePack

Assassins Creed: Odyssey

RePack

NEED FOR SPEED™ PAYBACK

3 сезон

9 сезон

Бесстыжие 9 сезон

Все сериалы

все сериалы на PB.wtf

RePack

FAR CRY 5
Ребята, катастрофически не хватает 1900р. для оплаты серверов за Октябрь (всвязи с блокировками трафик упал в 3 раза), 1-2р., выручайте.
  

Спортивная честь (Владимир Петров) [1951, СССР, комедия, приключения, спорт, SATRip-AVC от AVP Studio] pb.wtf

Спортивная честь через торрент pb.wtf

Размер: 1.46 GB | Добавлен: 4 года назад | Торрент скачан:43 раза
Скачать  

13-11-2015 09:58 Спортивная честь Скачать торрент  

Спортивная честь
Страна: СССР
Производство: Мосфильм

Жанр: комедия, приключения, спорт
Год выпуска: 1951
Продолжительность: 01:40:41

Перевод: Не требуется
Cубтитры: нет
Оригинальная аудиодорожка: русский

Режиссер: Владимир Петров

В ролях:
Алексей Грибов, Геннадий Сергеев, Маргарита Лифанова, Лев Фричинский, Николай Крючков, В. Зотова, Вадим Синявский, Александр Дегтярь...
Полный список актёров

Описание:
Рабочий уральского завода Ветлугин становится членом московской футбольной команды «Турбина». Известный всей стране капитан и центральный нападающий «Турбины» Виталий Гринько ревностно относится к новичку и пытается опорочить простодушного футболиста. Вся команда принимает сторону новичка, критикует поведение капитана — и в игре с зарубежной командой одерживает победу. Первая роль в кино актера Олега Стриженова.

Источник: DVB
Качество видео: SATRip-AVC
Формат видео: MKV

Видео: 696->758x568 (4:3), 25 fps, H264 ~ 1880 kbps avg, 0.190 bit/pixel
Аудио: 48 kHz, Dolby Digital AC3 2.0, 192 kbps

Раздача от:
Общее
Полное имя : Sportivnaya.chest.1951.SATRip-AVC_[New-team]_by_AVP_Studio.mkv
Формат : Matroska
Версия формата : Version 2
Размер файла : 1,46 Гбайт
Продолжительность : 1 ч. 40 м.
Общий поток : 2074 Кбит/сек
Дата кодирования : UTC 2015-11-12 18:31:40
Программа кодирования : mkvmerge v6.1.0 ('Old Devil') built on Mar 4 2013 09:10:42
Библиотека кодирования : libebml v1.3.0 + libmatroska v1.4.0

Видео
Идентификатор : 1
Формат : AVC
Формат/Информация : Advanced Video Codec
Профиль формата : High@L4.1
Параметр CABAC формата : Да
Параметр ReFrames формата : 10 кадров
Идентификатор кодека : V_MPEG4/ISO/AVC
Продолжительность : 1 ч. 40 м.
Битрейт : 1880 Кбит/сек
Ширина : 696 пикселей
Высота : 568 пикселей
Соотношение сторон : 4:3
Режим частоты кадров : Постоянный
Частота кадров : 25,000 кадров/сек
Цветовое пространство : YUV
Субдискретизация насыщенности : 4:2:0
Битовая глубина : 8 бит
Тип развёртки : Прогрессивная
Бит/(Пиксели*Кадры) : 0.190
Размер потока : 1,29 Гбайт (89%)
Библиотека кодирования : x264 core 148 r2597 e86f3a1
Настройки программы : cabac=1 / ref=10 / deblock=1:-2:-1 / analyse=0x3:0x113 / me=umh / subme=10 / psy=1 / psy_rd=1.00:0.00 / mixed_ref=1 / me_range=32 / chroma_me=1 / trellis=2 / 8x8dct=1 / cqm=0 / deadzone=21,11 / fast_pskip=1 / chroma_qp_offset=-2 / threads=6 / lookahead_threads=1 / sliced_threads=0 / nr=0 / decimate=0 / interlaced=0 / bluray_compat=0 / constrained_intra=0 / bframes=8 / b_pyramid=2 / b_adapt=2 / b_bias=0 / direct=3 / weightb=1 / open_gop=0 / weightp=2 / keyint=250 / keyint_min=25 / scenecut=40 / intra_refresh=0 / rc=2pass / mbtree=0 / bitrate=1880 / ratetol=1.0 / qcomp=0.60 / qpmin=0 / qpmax=69 / qpstep=4 / cplxblur=20.0 / qblur=0.5 / ip_ratio=1.40 / pb_ratio=1.30 / aq=1:1.00
Default : Да
Forced : Нет

Аудио
Идентификатор : 2
Формат : AC-3
Формат/Информация : Audio Coding 3
Расширение режима : CM (complete main)
Параметр Endianness формата : Big
Идентификатор кодека : A_AC3
Продолжительность : 1 ч. 40 м.
Вид битрейта : Постоянный
Битрейт : 192 Кбит/сек
Каналы : 2 канала
Расположение каналов : Front: L R
Частота : 48,0 КГц
Метод сжатия : С потерями
Размер потока : 138 Мбайт (9%)
Default : Да
Forced : Нет
pb.wtf



Скачать Спортивная честь через торрент http://s018.radikal.ru/i521/1511/c5/77b618b3a2c6.png Скачать фильм Спортивная честь через торрент бесплантно в хорошем качестве Описание:Рабочий уральского завода Ветлугин становится членом московской футбольной команды «Турбина». Известный всей стране капитан и ... 10 10 1
Info! Золотая раздача, скачанное не засчитывается.
Торрент: Зарегистрирован [2015-11-13 09:58] · скачан: 43 раз
Статус: √ проверено
Размер: 1.46 GB
Как cкачать? Как скачать Спортивная честь через торрент | qTorrent

% Раздел Тема Автор DL S | L
Кино СССР [ 746 MB ] Спортивная честь [1951 СССР SATRip от AVP Studio] AVP Studio Скачать
1 | 0
Кино СССР [ 1.46 GB ] Спортивная честь [1951 СССР SATRip от AVP Studio] AVP Studio Скачать
1 | 0
    Дорогой пользователь! Огромная просьба, поблагодарите релизера, оцените раздачу и оставьте свои комментарий, если Вы скачали Спортивная честь через торрент бесплатно! Внесите свою лепту в развитие PiratBit!
    Комментировать посты могут только пользователи прошедшие не сложную регистрацию
    Показать сообщения:    

    Спортивная честь через торрент
    Скачать бесплатно Спортивная честь
    Спортивная честь скачать торрент
    Спортивная честь смотреть онлайн
    Cкачать фильм Спортивная честь бесплатно
    Спортивная честь скачать торрент в хорошем качестве
    Спортивная честь смотреть онлайн бесплатно в хорошем качестве


    Вы не можете начинать темы
    Вы не можете отвечать на сообщения
    Вы не можете редактировать свои сообщения
    Вы не можете удалять свои сообщения
    Вы не можете голосовать в опросах
    Вы не можете прикреплять файлы к сообщениям
    Вы можете скачивать файлы