MEGA SALE -50% FORZA HORIZON 4 ULTIMATE+ВСЕ DLC+ОНЛАЙН всего за 599р. 299 руб. (супер цена). Внимание количество ограничено!!!

iTunes

1+1

iTunes

мы

iTunes

1

iTunes

Чернобыль

iTunes

Ральф против интернета

Лицензия

ПШазам

Лицензия

Игра престолов

Лицензия

30
pack

ВАЖНО

!!Акция!!

Alien_RageХит недели

RePack

Resident Evil 21

ИГРА 18+

pack

RePack

Metro:Exodus

!!Акция!!

Alien_Rage

RePack

fifa19

RePack

Assassins Creed: Odyssey

RePack

NEED FOR SPEED™ PAYBACK

3 сезон

9 сезон

Бесстыжие 9 сезон

Все сериалы

все сериалы на PB.wtf

RePack

FAR CRY 5
Ребята, катастрофически не хватает 7730р. для оплаты серверов за АВГУСТ (всвязи с блокировками трафик упал в 3 раза), 1-2р., выручайте.
  

Счастливчик Гилмор / Happy Gilmore (Дэннис Дуган) [1996, комедия, спорт, BDRip AVC by msltel] MVO, 3 x AVO pb.wtf

Счастливчик Гилмор через торрент pb.wtf

Размер: 2.96 GB | Добавлен: 3 года 10 мес. назад | Торрент скачан:43 раза
Скачать  

14-11-2015 15:04 Счастливчик Гилмор Скачать торрент  

Название: Счастливчик Гилмор
Оригинальное название: Happy Gilmore
Год выпуска: 1996
Страна: США
Жанр: комедия, спорт
Продолжительность: 01:31:55
Перевод: профессиональный многоголосый, авторский

Режиссёр: Дэннис Дуган

В ролях: Адам Сэндлер, Кристофер МакДональд, Джули Боуэн, Фрэнсис Бэй, Карл Уэзерс, Аллен Коверт, Роберт Шмигель, Ричард Кил, Дэннис Дуган, Джо Флаэрти, Кевин Нилон, Джаред ван Снелленберг, Кен Камру, Рич Элвуд, Нэнси МакКлюр, Хелена Йеа, Уилл Сассо, Ди Джей Джексон, Элли Харви, Йен Буфбай, Эндрю Джонстон, Ким Рестелл, Фред Перрон, Хелен Ханивелл, Пол Раскин, Уильям Сэмплз, Джон Шоу, Тед Дикан, Джон Б. Дестри, Джеймс Крешенцо, Бретт Армстронг, Питер Келамис, Стивен Тиббеттс, Эдвард Либерман, Дональд МакМиллан, Луис О’Донохью, Лизанн Коллетт, Дуглас Ньюэлл, Фрэнк Л. Фрэзиер, Дэвид Кэй, Захари Уэбб

Описание: Гилмор с детства обожал хоккей, но, кроме пушечного удара, способностей у него к этой игре «настоящих мужчин» не было. Случай дал ему в руки клюшку для гольфа, и удар его был самым мощным за всю историю этого лужаечного вида спорта, который он так презирал. Но на одном презрении далеко не уедешь, а вот за победу в гольф платят большие деньги. И тут за дело берётся профессиональный тренер по гольфу, которому придется весьма нелегко с дегенеративным «счастливчиком» Гилмором...



Качество: BDRip AVC Сравнение с исходником
Формат: MKV
Видео: MPEG-4 AVC, 2695 Кбит/с, 1024x554, 23,976 кадра/с
Аудио 1: русский, AC3, 224 kbps, 2 ch, 48 kHz [профессиональный многоголосый, СТС]
Аудио 2: русский, AC3, 448 kbps, 6 ch, 48 kHz [авторский, Яков Беллман]
Аудио 3: русский, AC3, 256 kbps, 2 ch, 48 kHz [авторский, Евгений Гранкин]
Аудио 4: русский, AC3, 448 kbps, 6 ch, 48 kHz [авторский, Павел Санаев]
Аудио 5: английский, AC3, 448 kbps, 6 ch, 48 kHz [оригинал]
Субтитры 1: русские
Субтитры 2: английские (для слабослышащих)
Общее
Уникальный идентификатор : 179052261801812197854804120274523006796 (0x86B436153AC417B1B4AD8A0DA45A274C)
Полное имя : D:\Video\Счастливчик Гилмор.1996.BDRip.AVC.mkv
Формат : Matroska
Версия формата : Version 4 / Version 2
Размер файла : 2,96 Гбайт
Продолжительность : 1 ч. 31 м.
Общий поток : 4610 Кбит/сек
Название фильма : BDRip -- STarankov
Дата кодирования : UTC 2015-11-14 11:40:42
Программа кодирования : mkvmerge v8.2.0 ('World of Adventure') 64bit
Библиотека кодирования : libebml v1.3.1 + libmatroska v1.4.2
DURATION : 01:27:09.599000000
NUMBER_OF_FRAMES : 1350
NUMBER_OF_BYTES : 52197
_STATISTICS_WRITING_APP : mkvmerge v8.2.0 ('World of Adventure') 64bit
_STATISTICS_WRITING_DATE_UTC : 2015-11-14 11:40:42
_STATISTICS_TAGS : BPS DURATION NUMBER_OF_FRAMES NUMBER_OF_BYTES

Видео
Идентификатор : 1
Формат : AVC
Формат/Информация : Advanced Video Codec
Профиль формата : High@L4.1
Параметр CABAC формата : Да
Параметр ReFrames формата : 9 кадров
Идентификатор кодека : V_MPEG4/ISO/AVC
Продолжительность : 1 ч. 31 м.
Битрейт : 2695 Кбит/сек
Ширина : 1024 пикселя
Высота : 554 пикселя
Соотношение сторон : 1,85:1
Режим частоты кадров : Постоянный
Частота кадров : 23,976 кадра/сек
Цветовое пространство : YUV
Субдискретизация насыщенности : 4:2:0
Битовая глубина : 8 бит
Тип развёртки : Прогрессивная
Бит/(Пиксели*Кадры) : 0.198
Размер потока : 1,73 Гбайт (58%)
Библиотека кодирования : x264 core 146 r2538 121396c
Настройки программы : cabac=1 / ref=9 / deblock=1:-1:-1 / analyse=0x3:0x113 / me=umh / subme=10 / psy=1 / psy_rd=1.00:0.15 / mixed_ref=1 / me_range=32 / chroma_me=1 / trellis=2 / 8x8dct=1 / cqm=0 / deadzone=21,11 / fast_pskip=1 / chroma_qp_offset=-3 / threads=6 / lookahead_threads=1 / sliced_threads=0 / nr=0 / decimate=1 / interlaced=0 / bluray_compat=0 / constrained_intra=0 / bframes=8 / b_pyramid=2 / b_adapt=2 / b_bias=0 / direct=1 / weightb=1 / open_gop=0 / weightp=2 / keyint=230 / keyint_min=23 / scenecut=40 / intra_refresh=0 / rc_lookahead=40 / rc=crf / mbtree=0 / crf=18.8 / qcomp=0.60 / qpmin=0 / qpmax=69 / qpstep=4 / vbv_maxrate=40000 / vbv_bufsize=50000 / crf_max=0.0 / nal_hrd=none / filler=0 / ip_ratio=1.40 / pb_ratio=1.30 / aq=1:1.00
Язык : English
Default : Да
Forced : Нет
DURATION : 01:31:55.594000000
NUMBER_OF_FRAMES : 132242
NUMBER_OF_BYTES : 1919510254
_STATISTICS_WRITING_APP : mkvmerge v8.2.0 ('World of Adventure') 64bit
_STATISTICS_WRITING_DATE_UTC : 2015-11-14 11:40:42
_STATISTICS_TAGS : BPS DURATION NUMBER_OF_FRAMES NUMBER_OF_BYTES

Аудио #1
Идентификатор : 2
Формат : AC-3
Формат/Информация : Audio Coding 3
Расширение режима : CM (complete main)
Параметр Endianness формата : Big
Идентификатор кодека : A_AC3
Продолжительность : 1 ч. 31 м.
Вид битрейта : Постоянный
Битрейт : 224 Кбит/сек
Каналы : 2 канала
Расположение каналов : Front: L R
Частота : 48,0 КГц
Метод сжатия : С потерями
Размер потока : 147 Мбайт (5%)
Заголовок : MVO (CTC)
Язык : Russian
Default : Да
Forced : Нет

Аудио #2
Идентификатор : 3
Формат : AC-3
Формат/Информация : Audio Coding 3
Расширение режима : CM (complete main)
Параметр Endianness формата : Big
Идентификатор кодека : A_AC3
Продолжительность : 1 ч. 31 м.
Вид битрейта : Постоянный
Битрейт : 448 Кбит/сек
Каналы : 6 каналов
Расположение каналов : Front: L C R, Side: L R, LFE
Частота : 48,0 КГц
Метод сжатия : С потерями
Размер потока : 295 Мбайт (10%)
Заголовок : AVO (Яков Беллман)
Язык : Russian
Default : Нет
Forced : Нет

Аудио #3
Идентификатор : 4
Формат : AC-3
Формат/Информация : Audio Coding 3
Расширение режима : CM (complete main)
Параметр Endianness формата : Big
Идентификатор кодека : A_AC3
Продолжительность : 1 ч. 31 м.
Вид битрейта : Постоянный
Битрейт : 256 Кбит/сек
Каналы : 6 каналов
Расположение каналов : Front: L C R, Side: L R, LFE
Частота : 48,0 КГц
Метод сжатия : С потерями
Размер потока : 168 Мбайт (6%)
Заголовок : AVO (Евгений Гранкин)
Язык : Russian
Default : Нет
Forced : Нет

Аудио #4
Идентификатор : 5
Формат : AC-3
Формат/Информация : Audio Coding 3
Расширение режима : CM (complete main)
Параметр Endianness формата : Big
Идентификатор кодека : A_AC3
Продолжительность : 1 ч. 31 м.
Вид битрейта : Постоянный
Битрейт : 448 Кбит/сек
Каналы : 6 каналов
Расположение каналов : Front: L C R, Side: L R, LFE
Частота : 48,0 КГц
Метод сжатия : С потерями
Размер потока : 295 Мбайт (10%)
Заголовок : AVO (Павел Санаев)
Язык : Russian
Default : Нет
Forced : Нет

Аудио #5
Идентификатор : 6
Формат : AC-3
Формат/Информация : Audio Coding 3
Расширение режима : CM (complete main)
Параметр Endianness формата : Big
Идентификатор кодека : A_AC3
Продолжительность : 1 ч. 31 м.
Вид битрейта : Постоянный
Битрейт : 448 Кбит/сек
Каналы : 6 каналов
Расположение каналов : Front: L C R, Side: L R, LFE
Частота : 48,0 КГц
Метод сжатия : С потерями
Размер потока : 295 Мбайт (10%)
Заголовок : Original
Язык : English
Default : Нет
Forced : Нет

Текст #1
Идентификатор : 7
Формат : UTF-8
Идентификатор кодека : S_TEXT/UTF8
Идентификатор кодека/Информация : UTF-8 Plain Text
Заголовок : русский
Язык : Russian
Default : Нет
Forced : Нет

Текст #2
Идентификатор : 8
Формат : UTF-8
Идентификатор кодека : S_TEXT/UTF8
Идентификатор кодека/Информация : UTF-8 Plain Text
Заголовок : английский (для слабослышащих)
Default : Нет
Forced : Нет
pb.wtf



Скачать Счастливчик Гилмор через торрент http://s020.radikal.ru/i700/1511/e0/750bec7c2908.png Скачать фильм Счастливчик Гилмор через торрент бесплантно в хорошем качестве Описание: Гилмор с детства обожал хоккей, но, кроме пушечного удара, способностей у него к этой игре «настоящих мужчин» не было. Случай дал ... 7 10 3
Info! Золотая раздача, скачанное не засчитывается.
Торрент: Зарегистрирован [2015-11-14 15:04] · скачан: 43 раз
Статус: √ проверено
Размер: 2.96 GB
Как cкачать? Как скачать Счастливчик Гилмор через торрент | qTorrent

% Раздел Тема Автор DL S | L
Фильмы [HD 720p, 1080p] (Хороший звук DUB, MVO) [ 9.83 GB ] Счастливчик Гилмор / Happy Gilmore [1996 BDRip 1080p by msltel] MVO 3 x AVO msltel Скачать
1 | 0
Фильмы [HD 720p, 1080p] (Хороший звук DUB, MVO) [ 4.24 GB ] Счастливчик Гилмор / Happy Gilmore [1996 BDRip 720p by msltel] MVO 3 x AVO msltel Скачать
1 | 0


>> Регистрируемся здесь <<






Отзывы и комментарии о схеме читаем и пишем здесь: ---> Отзывы и комментарии о схеме

Новые благодарочки в телеграм довольных пользователей:
скриншот   скриншот   скриншот   скриншот   скриншот

14-11-2015 19:12 Счастливчик Гилмор Скачать торрент  

отличный фильм и судя по сравнению и рип тоже (вот только для правильного сравнивания надо было скриншоты своего рипа до 1920 увеличивать)
pb.wtf



    Дорогой пользователь! Огромная просьба, поблагодарите релизера, оцените раздачу и оставьте свои комментарий, если Вы скачали Счастливчик Гилмор через торрент бесплатно! Внесите свою лепту в развитие PiratBit!
    Комментировать посты могут только пользователи прошедшие не сложную регистрацию
    Показать сообщения:    

    Счастливчик Гилмор через торрент
    Скачать бесплатно Счастливчик Гилмор
    Счастливчик Гилмор скачать торрент
    Счастливчик Гилмор смотреть онлайн
    Cкачать фильм Счастливчик Гилмор бесплатно
    Счастливчик Гилмор скачать торрент в хорошем качестве
    Счастливчик Гилмор смотреть онлайн бесплатно в хорошем качестве


    Вы не можете начинать темы
    Вы не можете отвечать на сообщения
    Вы не можете редактировать свои сообщения
    Вы не можете удалять свои сообщения
    Вы не можете голосовать в опросах
    Вы не можете прикреплять файлы к сообщениям
    Вы можете скачивать файлы