>

7.4

iTunes

7.4

2 сезон

9.4

1 сезон

1

7.4

2 сезон

7.2

iTunes

6.0

MVO

13

6.1

iTunes

8.3

Пиратка

30

ULTIMATE

pack

9.9

Лицензия

ВАЖНО

ИГРА 18+

pack

7.3

RePack

MK11

7.7

RePack

jed

7.8

RePack

fifa19

8.5

RePack

RDR2

RePack

NEED FOR SPEED™ PAYBACK

1 сезон

9 сезон

Бесстыжие 9 сезон

Все сериалы

все сериалы на PB.wtf

RePack

FAR CRY 5

Anonymous, доброе утро, мы катастрофически не успеваем собрать деньги на оплату серверов, помогите нам пожалуйста 5,10,15р., для нас важна любая помощь . В качестве благодарности мы отключим Вам всю рекламу на сайте (укажите свой ник в строку Ваше имя)!

×
  
Magnet ссылка

Трахни меня / Baise-moi (Виржини Депант , Корали Трин Ти ) [2000, триллер, драма, криминал, DVDRip, [AVO] (А.Гаврилов), [VO] (Russianguy27-Ненормативная лексика), Original] pb.wtf

Трахни меня через торрент pb.wtf

Размер: 1.46 GB | Добавлен: 6 лет 2 мес. назад | Торрент скачан:54 раза
Смотреть онлайн Трахни меня | Скачать    Ребята, помогите собрать деньги на оплату серверов!!!

14-11-2015 19:10 Трахни меня Скачать торрент  

Трахни меня / Baise-moi
Год выпуска: 2000
Страна: Франция
Жанр: триллер, драма, криминал
Продолжительность: 01:13:49
Перевод:
Авторский (одноголосый) [А.Гаврилов]
Любительский (одноголосый)[Russianguy27] - Ненормативная лексика
Original [french]
Режиссер: Виржини Депант , Корали Трин Ти
В ролях:

Карен Ланком (Nadine), Раффаэла Андерсон (Manu), Селина Беньо (La blonde au billard), Адам Нина (Le garçon au billard), Кристоф Клоди Ландри (Le mec au comptoir), Тевфик Саад (Le serveur bar), Дельфина МакКарти (La colocataire), Оссини Эмбарек (Radouan), Патрик Коджо Топу (Wanted), Симон Наум (Su copain), Карим Шала (Su copain), Лиза Маршалл (La copine de Manu)
Описание:
Ману и Надин побывали на самом дне жизни и не по наслышке знают, что такое изнасилование, проституция и смерть самых близких людей. Они озлоблены на весь мир и готовы мстить за унижение каждому, кто попадется на их пути. Чтобы познать вкус безграничной свободы, они отправляются в путешествие, которое заполняют сексом, кровавыми убийствами и грабежами.
Рейтинг:

MPAA: R - Лицам до 17 лет обязательно присутствие взрослого
Качество: DVDRip
Формат: AVI
Видео: XviD, 672x400 (1.680), 2235 kbps, 25 fps, 0,333 bpp
Аудио №1: AC3 / 2.0 / 48 kHz / 192 kbps / 16 bit [А.Гаврилов]
Аудио №2: AC3 / 2.0 / 48 kHz / 192 kbps / 16 bit [Russianguy27] - Ненормативная лексика
Аудио №3: AC3 / 2.0 / 48 kHz / 192 kbps / 16 bit Original [french]

Код:

General
Complete name                            : D:\download\Трахни меня.avi
Format                                   : AVI
Format/Info                              : Audio Video Interleave
File size                                : 1.46 GiB
Duration                                 : 1h 13mn
Overall bit rate                         : 2 826 Kbps

Video
ID                                       : 0
Format                                   : MPEG-4 Visual
Format profile                           : Advanced Simple@L5
Format settings, BVOP                    : 2
Format settings, QPel                    : No
Format settings, GMC                     : No warppoints
Format settings, Matrix                  : Default (MPEG)
Codec ID                                 : XVID
Codec ID/Hint                            : XviD
Duration                                 : 1h 13mn
Bit rate                                 : 2 236 Kbps
Width                                    : 672 pixels
Height                                   : 400 pixels
Display aspect ratio                     : 1.680
Frame rate                               : 25.000 fps
Color space                              : YUV
Chroma subsampling                       : 4:2:0
Bit depth                                : 8 bits
Scan type                                : Progressive
Compression mode                         : Lossy
Bits/(Pixel*Frame)                       : 0.333
Stream size                              : 1.15 GiB (79%)
Writing library                          : XviD 1.2.1 (UTC 2008-12-04)

Audio #1
ID                                       : 1
Format                                   : AC-3
Format/Info                              : Audio Coding 3
Mode extension                           : CM (complete main)
Codec ID                                 : 2000
Duration                                 : 1h 13mn
Bit rate mode                            : Constant
Bit rate                                 : 192 Kbps
Channel(s)                               : 2 channels
Channel positions                        : Front: L R
Sampling rate                            : 48.0 KHz
Bit depth                                : 16 bits
Compression mode                         : Lossy
Stream size                              : 101 MiB (7%)
Alignment                                : Aligned on interleaves
Interleave, duration                     : 64 ms (1.60 video frames)
Interleave, preload duration             : 192 ms
Title                                    : VTS_02_1 T80 2_0ch 192Kbps DELAY 0ms_new

Audio #2
ID                                       : 2
Format                                   : AC-3
Format/Info                              : Audio Coding 3
Mode extension                           : CM (complete main)
Codec ID                                 : 2000
Duration                                 : 1h 13mn
Bit rate mode                            : Constant
Bit rate                                 : 192 Kbps
Channel(s)                               : 2 channels
Channel positions                        : Front: L R
Sampling rate                            : 48.0 KHz
Bit depth                                : 16 bits
Compression mode                         : Lossy
Stream size                              : 101 MiB (7%)
Alignment                                : Aligned on interleaves
Interleave, duration                     : 64 ms (1.60 video frames)
Interleave, preload duration             : 192 ms
Title                                    : VTS_02_1 T81 3_2ch 448Kbps DELAY 0ms_new

Audio #3
ID                                       : 3
Format                                   : AC-3
Format/Info                              : Audio Coding 3
Mode extension                           : CM (complete main)
Codec ID                                 : 2000
Duration                                 : 1h 13mn
Bit rate mode                            : Constant
Bit rate                                 : 192 Kbps
Channel(s)                               : 2 channels
Channel positions                        : Front: L R
Sampling rate                            : 48.0 KHz
Bit depth                                : 16 bits
Compression mode                         : Lossy
Stream size                              : 101 MiB (7%)
Alignment                                : Aligned on interleaves
Interleave, duration                     : 64 ms (1.60 video frames)
Interleave, preload duration             : 192 ms
Title                                    : VTS_02_1 T83 2_0ch 192Kbps DELAY 0ms_new

скриншот   скриншот  скриншот  скриншот  
pb.wtf



Скачать Трахни меня через торрент https://pic1.kartinco.top/images/10/wh9d7.jpg Скачать, смотреть онлайн Трахни меня бесплантно в хорошем качестве Описание: Ману и Надин побывали на самом дне жизни и не по наслышке знают, что такое изнасилование, проституция и смерть самых близких ... 9.9 10 7
Info! Золотая раздача, скачанное не засчитывается.
Торрент: Зарегистрирован [2015-11-14 19:10] · скачан: 54 раз
Статус: √ проверено
Размер: 1.46 GB
Как cкачать? Как скачать Трахни меня через торрент | UTorrent



Последний раз редактировалось: schultz (2015-11-14 20:27), всего редактировалось 1 раз

28-11-2019 20:33  

Отключить всю рекламу на сайте

14-11-2015 19:21 Трахни меня Скачать торрент  

это есть ужасpb.wtf



14-11-2015 20:05 Трахни меня Скачать торрент  

Мне понравилось(не кино) - "Лицам до 17 лет обязательно присутствие взрослого" :rofle:pb.wtf



    Дорогой пользователь! Огромная просьба, поблагодарите релизера, оцените раздачу и оставьте свои комментарий, если Вы скачали Трахни меня через торрент бесплатно!
    Комментировать посты могут только пользователи прошедшие не сложную регистрацию
    Показать сообщения:    

    Трахни меня через торрент
    Скачать бесплатно Трахни меня
    Трахни меня скачать торрент
    Трахни меня смотреть онлайн
    Cкачать фильм Трахни меня бесплатно
    Трахни меня скачать торрент в хорошем качестве
    Трахни меня смотреть онлайн бесплатно в хорошем качестве


    Вы не можете начинать темы
    Вы не можете отвечать на сообщения
    Вы не можете редактировать свои сообщения
    Вы не можете удалять свои сообщения
    Вы не можете голосовать в опросах
    Вы не можете прикреплять файлы к сообщениям
    Вы можете скачивать файлы