Достать ножи: Стеклянная луковица

MVO

Добыча

Дубляж

Уэнсдэй

1 сезон

Тор

Дубляж

13 клиническая

1 сезон

Жестокая ночь

MVO

Одни из нас

1 сезон

Deluxe

pack

Рекомендуем

30

Пиратка

ВАЖНО

ВАЖНО

Ghostwire

Пиратка

jed

RePack

nioh2

RePack

RDR2

RePack

NEED FOR SPEED™ PAYBACK

RePack

скачать торрент

Кинопоиск HD

Острые козырьки 6 сезон

6 сезон

FAR CRY 6

RePack

скачать торрент

Лицензия

скачать торрент

MVO

1

1 сезон

скачать торрент

1 сезон

скачать торрент

Лицензия

  

Не бойся, я с тобой! (Юлий Гусман) [1981, СССР, мюзикл, боевик, мелодрама, комедия, приключения, HDTVRip от AVP Studio]

Не бойся, я с тобой! через торрент pb.wtf

Размер: 1.09 GB | Добавлен: 5 лет 9 мес. назад | Торрент скачан:33 раза
Смотреть онлайн | Скачать | Поддержите нас   

15-11-2015 10:09 Не бойся, я с тобой! Скачать торрент  

Не бойся, я с тобой!
Страна: СССР
Производство: Азербайджанфильм

Жанр: мюзикл, боевик, мелодрама, комедия, приключения
Год выпуска: 1981
Продолжительность: 02:25:45

Перевод: Не требуется
Cубтитры: нет
Оригинальная аудиодорожка: русский

Режиссер: Юлий Гусман

В ролях:
Мухтарбек Кантемиров, Лев Дуров, Полад Бюль-Бюль оглы, Гамида Омарова, Гасанага Турабов, Мирза Бабаев, Сергей Юрский, Мухтар Маниев, Александр Шаровский, Джафар Новрузов, Насиба Зейналова, Садых Гусейнов...
Полный список актёров

Описание:
Начало XX века. Российская империя, Азербайджан.
Герои фильма, артисты цирка Рустам и Сан Саныч, приезжают на родину Рустама. Втянутые, помимо своей воли, в любовную историю певца Теймура и дочери Фарзали-бека Телли, они помогают им обмануть жадного отца девушки...

Источник: HDTV 1080i
Качество видео: HDTVRip
Формат видео: AVI

Видео: 576x432 (4:3), 25 fps, XviD ~ 934 kbps avg, 0.150 bit/pixel
Аудио: 48 kHz, MP3 2.0, 128 kbps

Раздача от:
Общее
Полное имя : Ne.boysya,ya.s.toboy!1981.HDTVRip-1,09_[New-team]_by_AVP_Studio.avi
Формат : AVI
Формат/Информация : Audio Video Interleave
Размер файла : 1,09 Гбайт
Продолжительность : 2 ч. 25 м.
Общий поток : 1072 Кбит/сек
Программа кодирования : VirtualDubMod 1.5.10.3 | www.virtualdub-fr.org || (build 2550/release)
Библиотека кодирования : VirtualDubMod build 2550/release

Видео
Идентификатор : 0
Формат : MPEG-4 Visual
Профиль формата : Advanced [email protected]
Параметр BVOP формата : 1
Параметр QPel формата : Нет
Параметр GMC формата : Без точки перехода
Параметр матрицы формата : Выборочная
Идентификатор кодека : XVID
Идентификатор кодека/Подсказка : XviD
Продолжительность : 2 ч. 25 м.
Битрейт : 934 Кбит/сек
Ширина : 576 пикселей
Высота : 432 пикселя
Соотношение сторон : 4:3
Частота кадров : 25,000 кадров/сек
Цветовое пространство : YUV
Субдискретизация насыщенности : 4:2:0
Битовая глубина : 8 бит
Тип развёртки : Прогрессивная
Метод сжатия : С потерями
Бит/(Пиксели*Кадры) : 0.150
Размер потока : 974 Мбайт (87%)
Библиотека кодирования : XviD 73

Аудио
Идентификатор : 1
Формат : MPEG Audio
Версия формата : Version 1
Профиль формата : Layer 3
Идентификатор кодека : 55
Идентификатор кодека/Подсказка : MP3
Продолжительность : 2 ч. 25 м.
Вид битрейта : Постоянный
Битрейт : 128 Кбит/сек
Каналы : 2 канала
Частота : 48,0 КГц
Метод сжатия : С потерями
Размер потока : 133 Мбайт (12%)
Выравнивание : Соединение по промежуткам
Продолжительность промежутка : 40 мс. (1,00 видеокадр)
Время предзагрузки промежутка : 504 мс.
Библиотека кодирования : LAME3.99r
Настройки программы : -m s -V 4 -q 2 -lowpass 17 -b 128



Скачать Не бойся, я с тобой! через торрент http://i6-imageban-ru.translate.goog/out/2015/11/15/3592797b2bf66aca224f6478d47679e5.png Скачать, смотреть онлайн Не бойся, я с тобой! бесплантно в хорошем качестве Описание:Начало XX века. Российская империя, Азербайджан.Герои фильма, артисты цирка Рустам и Сан Саныч, приезжают на родину Рустама. ... 10 10 3
Info! Золотая раздача, скачанное не засчитывается.
Торрент: Зарегистрирован [2017-05-01 19:43] · скачан: 33 раз
Статус: √ проверено
Размер: 1.09 GB
Как cкачать? Как скачать Не бойся, я с тобой! через торрент | UTorrent

% Раздел Тема Автор DL S | L
Наши фильмы 2013 [ 1.7 GB ] Не бойся, я с тобой! 1919 | | SATRip nobana Скачать
1 | 0
Кино СССР [ 2.18 GB ] Не бойся, я с тобой! | | HDTVRip от AVP Studio AVP Studio Скачать
1 | 0
Кино СССР [ 2.18 GB ] Не бойся, я с тобой! | | HDTVRip-AVC от AVP Studio AVP Studio Скачать
1 | 0
Кино СССР [ 1.69 GB ] Не бойся, я с тобой! | | DVDRip Azazel Скачать
1 | 0
Кино СССР [ 2.1 GB ] Не бойся, я с тобой! | | DVDRip chaga2009 Скачать
1 | 0

28-11-2019 20:33  


Отключить вcю реклaмy на сайте, в т.ч. и в плеере онлайн просмотра!

    Дорогой пользователь! Огромная просьба, поблагодарите релизера, оцените раздачу и оставьте свои комментарий, если Вы скачали Не бойся, я с тобой! через торрент бесплатно!!
    Комментировать посты могут только пользователи прошедшие не сложную регистрацию
    Показать сообщения:    


    Не бойся, я с тобой! через торрент
    Скачать бесплатно Не бойся, я с тобой!
    Не бойся, я с тобой! скачать торрент
    Не бойся, я с тобой! смотреть онлайн
    Cкачать фильм Не бойся, я с тобой! бесплатно
    Не бойся, я с тобой! скачать торрент в хорошем качестве
    Не бойся, я с тобой! смотреть онлайн бесплатно в хорошем качестве
    Вы не можете начинать темы
    Вы не можете отвечать на сообщения
    Вы не можете редактировать свои сообщения
    Вы не можете удалять свои сообщения
    Вы не можете голосовать в опросах
    Вы не можете прикреплять файлы к сообщениям
    Вы можете скачивать файлы
    Не бойся, я с тобой! [1981, СССР, мюзикл, боевик, мелодрама, комедия, приключения, HDTVRip от AVP Studio] смотреть онлайн, скачать торрент picoco.icu