новый адрес пиратбит piratbit
Мега распродажа FORZA HORIZON 4 ULTIMATE+ВСЕ DLC+ОНЛАЙН всего за 499р. 349 руб. (супер цена). Внимание количество ограничено!!!

iTunes

1+1

iTunes

мы

iTunes

1

iTunes

Чернобыль

iTunes

Ральф против интернета

Лицензия

ПШазам

Лицензия

Игра престолов

Лицензия

30
pack

ВАЖНО

!!Акция!!

Alien_RageХит недели

RePack

Resident Evil 21

ИГРА 18+

pack

RePack

Metro:Exodus

!!Акция!!

Alien_Rage

RePack

fifa19

RePack

Assassins Creed: Odyssey

RePack

NEED FOR SPEED™ PAYBACK

3 сезон

9 сезон

Бесстыжие 9 сезон

Все сериалы

все сериалы на PB.wtf

RePack

FAR CRY 5
Ребята, катастрофически не хватает 1900р. для оплаты серверов за Октябрь (всвязи с блокировками трафик упал в 3 раза), 1-2р., выручайте.
  

Белое солнце пустыни (Владимир Мотыль) [1969, СССР, боевик, драма, мелодрама, комедия, приключения, военный, BDRip от AVP Studio] pb.wtf

Белое солнце пустыни через торрент pb.wtf

Размер: 1.46 GB | Добавлен: 3 года 11 мес. назад | Торрент скачан:57 раз
Скачать  

15-11-2015 10:13 Белое солнце пустыни Скачать торрент  

Белое солнце пустыни
Год выпуска: 1969
Страна: СССР
Студии: ЭТО ("Мосфильм", "Ленфильм")

Жанр: боевик, драма, мелодрама, комедия, приключения, военный
Продолжительность: 01:23:32
Субтитры: нет

Режиссер: Владимир Мотыль

В ролях:
Анатолий Кузнецов, Павел Луспекаев, Спартак Мишулин, Кахи Кавсадзе, Раиса Куркина, Николай Годовиков, Татьяна Федотова, Муса Дудаев, Николай Бадьев, Владимир Кадочников, Галина Лучай, Алла Лименес, Татьяна Кричевская, Яков Ленц, Татьяна Ткач, Александр Массарский, Игорь Милонов, Лидия Смирнова, Светлана Сливинская, Зинаида Рахматова, Татьяна Денисова, Велта Деглав, Ираклий Нижарадзе, Яков Базелян, Галина Дашевская, Галина Умпелева, Надежда Румянцева (голос Гюльчатай)...
Полный список актёров

Описание:
Двадцатые годы прошлого века, Туркестан, гражданская война. "Классовые сражения на сегодняшний день в общем и целом завершены", и красноармеец Закаспийского интернационального революционного пролетарского имени товарища Августа Бебеля полка Федор Сухов возвращается на родину, к любезной жене Катерине Матвеевне. Он идет домой пешком через пустыню, направляясь к берегу Каспийского моря и по пути сочиняя письма жене. В дороге приключаются с Суховым разные истории: то местному аборигену Саиду надо помочь - выкопать из раскаленного песка, куда его бандит Джавдет по уши закопал, то взять на себя руководство гаремом некоего Черного Абдуллы, за бандой которого гоняется по пескам красный командир Рахимов. Абдулла решил уйти за границу, а гарем пустить в расход. Рахимов гарем отбил, Абдуллу упустил. Чтобы поймать Абдуллу, надо освободиться от забот о гареме. И Рахимов спихивает барышень на Сухова: тот должен довести женщин в целости и сохранности до Педжента...

Исходник: BDRemux
Тип релиза:BDRip
Контейнер: AVI

Видео: 720x528 (4:3), 23,976 fps, XviD ~ 2042 kbps avg, 0.224 bit/pixel
Аудио: 48 kHz, Dolby Digital AC3, 5.1 ch, 448.00 kbps

Раздача от:
Общее
Полное имя : Beloe.solntse.pustyni.1969.BDRip_[New-team]_by_AVP_Studio.avi
Формат : AVI
Формат/Информация : Audio Video Interleave
Размер файла : 1,46 Гбайт
Продолжительность : 1 ч. 23 м.
Общий поток : 2500 Кбит/сек
Программа кодирования : VirtualDubMod 1.5.10.3 | www.virtualdub-fr.org || (build 2550/release)
Библиотека кодирования : VirtualDubMod build 2550/release

Видео
Идентификатор : 0
Формат : MPEG-4 Visual
Профиль формата : Advanced Simple@L5
Параметр BVOP формата : 1
Параметр QPel формата : Нет
Параметр GMC формата : Без точки перехода
Параметр матрицы формата : Выборочная
Идентификатор кодека : XVID
Идентификатор кодека/Подсказка : XviD
Продолжительность : 1 ч. 23 м.
Битрейт : 2042 Кбит/сек
Ширина : 720 пикселей
Высота : 528 пикселей
Соотношение сторон : 4:3
Частота кадров : 23,976 кадра/сек
Цветовое пространство : YUV
Субдискретизация насыщенности : 4:2:0
Битовая глубина : 8 бит
Тип развёртки : Прогрессивная
Метод сжатия : С потерями
Бит/(Пиксели*Кадры) : 0.224
Размер потока : 1,19 Гбайт (82%)
Библиотека кодирования : XviD 73

Аудио
Идентификатор : 1
Формат : AC-3
Формат/Информация : Audio Coding 3
Расширение режима : CM (complete main)
Параметр Endianness формата : Big
Идентификатор кодека : 2000
Продолжительность : 1 ч. 23 м.
Вид битрейта : Постоянный
Битрейт : 448 Кбит/сек
Каналы : 6 каналов
Расположение каналов : Front: L C R, Side: L R, LFE
Частота : 48,0 КГц
Метод сжатия : С потерями
Размер потока : 268 Мбайт (18%)
Выравнивание : Разделение по промежуткам
Продолжительность промежутка : 42 мс. (1,00 видеокадр)
Время предзагрузки промежутка : 500 мс
pb.wtf



Скачать Белое солнце пустыни через торрент http://i1.imageban.ru/out/2015/11/15/46b65e1eee14a71d960fd393fc752253.png Скачать фильм Белое солнце пустыни через торрент бесплантно в хорошем качестве Описание: Двадцатые годы прошлого века, Туркестан, гражданская война. "Классовые сражения на сегодняшний день в общем и целом завершены", и ... 10 10 6
Торрент: Зарегистрирован [2015-11-15 10:13] · скачан: 57 раз
Статус: √ проверено
Размер: 1.46 GB
Как cкачать? Как скачать Белое солнце пустыни через торрент | qTorrent

% Раздел Тема Автор DL S | L
Документальные фильмы и телепередачи [ 3.17 GB ] Белое солнце пустыни. От заката до восхода [2016 Документальный HDTV Оригинальный] Бумер Скачать
1 | 0
Кино СССР [ 1.46 GB ] Белое солнце пустыни [1969 СССР военный BDRip-AVC от AVP Studio] AVP Studio Скачать
3 | 0
Кино СССР [ 6.57 GB ] Белое солнце пустыни [1969 СССР военный BDRip 1080p от AVP Studio] AVP Studio Скачать
1 | 0
Кино СССР [ 745 MB ] Белое солнце пустыни [1969 СССР военный BDRip от AVP Studio] AVP Studio Скачать
1 | 0
Фильмы (HD 720p, 1080p) (48-60 fps) [ 13.72 GB ] Белое солнце пустыни [1969 BDRip 1080p 60fps] Ворон Скачать
4 | 0
Наши фильмы (Blu-ray, BD-Remux, HDDVD) [ 20.59 GB ] Белое солнце пустыни [1969 Blu-ray Оригинал] Бумер Скачать
1 | 0
Наши фильмы (Blu-ray, BD-Remux, HDDVD) [ 13.03 GB ] Белое солнце пустыни [1969 BD-Remux Оригинал] Бумер Скачать
1 | 0


>> Регистрируемся здесь <<






Отзывы и комментарии о схеме читаем и пишем здесь: ---> Отзывы и комментарии о схеме

Новые благодарочки в телеграм довольных пользователей:
скриншот   скриншот   скриншот   скриншот   скриншот
    Дорогой пользователь! Огромная просьба, поблагодарите релизера, оцените раздачу и оставьте свои комментарий, если Вы скачали Белое солнце пустыни через торрент бесплатно! Внесите свою лепту в развитие PiratBit!
    Комментировать посты могут только пользователи прошедшие не сложную регистрацию
    Показать сообщения:    

    Белое солнце пустыни через торрент
    Скачать бесплатно Белое солнце пустыни
    Белое солнце пустыни скачать торрент
    Белое солнце пустыни смотреть онлайн
    Cкачать фильм Белое солнце пустыни бесплатно
    Белое солнце пустыни скачать торрент в хорошем качестве
    Белое солнце пустыни смотреть онлайн бесплатно в хорошем качестве


    Вы не можете начинать темы
    Вы не можете отвечать на сообщения
    Вы не можете редактировать свои сообщения
    Вы не можете удалять свои сообщения
    Вы не можете голосовать в опросах
    Вы не можете прикреплять файлы к сообщениям
    Вы можете скачивать файлы