>

5.6

iTunes

7.4

MVO

5.7

MVO

1

7.4

1 сезон

6.8

iTunes

7.2

1 сезон

13

6.7

1 сезон

8.3

RePack

30

Deluxe

pack

9.9

Лицензия

ВАЖНО

ИГРА 18+

pack

7.3

RePack

MK11

7.7

RePack

jed

7.8

RePack

fifa19

8.5

RePack

RDR2

RePack

NEED FOR SPEED™ PAYBACK

4 сезон

9 сезон

Бесстыжие 9 сезон

Все сериалы

все сериалы на PB.wtf

RePack

FAR CRY 5

Anonymous, доброй ночи, мы катастрофически не успеваем собрать деньги на оплату серверов, помогите нам пожалуйста 5,10,15р., для нас важна любая помощь . В качестве благодарности мы отключим Вам всю рекламу на сайте (укажите свой ник в строку Ваше имя)!

×
  
Magnet ссылка

Белое солнце пустыни (Владимир Мотыль) [1969, СССР, боевик, драма, мелодрама, комедия, приключения, военный, BDRip от AVP Studio] pb.wtf

Белое солнце пустыни через торрент pb.wtf

Размер: 745 MB | Добавлен: 5 лет 10 мес. назад | Торрент скачан:71 раз
Смотреть онлайн Белое солнце пустыни | Скачать    Ребята, помогите собрать деньги на оплату серверов!!!

15-11-2015 10:14 Белое солнце пустыни Скачать торрент  

Белое солнце пустыни
Год выпуска: 1969
Страна: СССР
Студии: ЭТО ("Мосфильм", "Ленфильм")

Жанр: боевик, драма, мелодрама, комедия, приключения, военный
Продолжительность: 01:23:32
Субтитры: нет

Режиссер: Владимир Мотыль

В ролях:
Анатолий Кузнецов, Павел Луспекаев, Спартак Мишулин, Кахи Кавсадзе, Раиса Куркина, Николай Годовиков, Татьяна Федотова, Муса Дудаев, Николай Бадьев, Владимир Кадочников, Галина Лучай, Алла Лименес, Татьяна Кричевская, Яков Ленц, Татьяна Ткач, Александр Массарский, Игорь Милонов, Лидия Смирнова, Светлана Сливинская, Зинаида Рахматова, Татьяна Денисова, Велта Деглав, Ираклий Нижарадзе, Яков Базелян, Галина Дашевская, Галина Умпелева, Надежда Румянцева (голос Гюльчатай)...
Полный список актёров

Описание:
Двадцатые годы прошлого века, Туркестан, гражданская война. "Классовые сражения на сегодняшний день в общем и целом завершены", и красноармеец Закаспийского интернационального революционного пролетарского имени товарища Августа Бебеля полка Федор Сухов возвращается на родину, к любезной жене Катерине Матвеевне. Он идет домой пешком через пустыню, направляясь к берегу Каспийского моря и по пути сочиняя письма жене. В дороге приключаются с Суховым разные истории: то местному аборигену Саиду надо помочь - выкопать из раскаленного песка, куда его бандит Джавдет по уши закопал, то взять на себя руководство гаремом некоего Черного Абдуллы, за бандой которого гоняется по пескам красный командир Рахимов. Абдулла решил уйти за границу, а гарем пустить в расход. Рахимов гарем отбил, Абдуллу упустил. Чтобы поймать Абдуллу, надо освободиться от забот о гареме. И Рахимов спихивает барышень на Сухова: тот должен довести женщин в целости и сохранности до Педжента...

Исходник: BDRemux
Тип релиза:BDRip
Контейнер: AVI

Видео: 656x480 (4:3), 23,976 fps, XviD ~ 1109 kbps avg, 0.147 bit/pixel
Аудио: 48 kHz, MP3, 2.0 ch, 128.00 kbps

Раздача от:
Общее
Полное имя : Beloe.solntse.pustyni.1969.BDRip-745_[New-team]_by_AVP_Studio.avi
Формат : AVI
Формат/Информация : Audio Video Interleave
Размер файла : 745 Мбайт
Продолжительность : 1 ч. 23 м.
Общий поток : 1246 Кбит/сек
Программа кодирования : VirtualDubMod 1.5.10.3 | www.virtualdub-fr.org || (build 2550/release)
Библиотека кодирования : VirtualDubMod build 2550/release

Видео
Идентификатор : 0
Формат : MPEG-4 Visual
Профиль формата : Advanced Simple@L5
Параметр BVOP формата : 1
Параметр QPel формата : Нет
Параметр GMC формата : Без точки перехода
Параметр матрицы формата : Выборочная
Идентификатор кодека : XVID
Идентификатор кодека/Подсказка : XviD
Продолжительность : 1 ч. 23 м.
Битрейт : 1109 Кбит/сек
Ширина : 656 пикселей
Высота : 480 пикселей
Соотношение сторон : 4:3
Частота кадров : 23,976 кадра/сек
Цветовое пространство : YUV
Субдискретизация насыщенности : 4:2:0
Битовая глубина : 8 бит
Тип развёртки : Прогрессивная
Метод сжатия : С потерями
Бит/(Пиксели*Кадры) : 0.147
Размер потока : 663 Мбайт (89%)
Библиотека кодирования : XviD 73

Аудио
Идентификатор : 1
Формат : MPEG Audio
Версия формата : Version 1
Профиль формата : Layer 3
Идентификатор кодека : 55
Идентификатор кодека/Подсказка : MP3
Продолжительность : 1 ч. 23 м.
Вид битрейта : Постоянный
Битрейт : 128 Кбит/сек
Каналы : 2 канала
Частота : 48,0 КГц
Метод сжатия : С потерями
Размер потока : 76,5 Мбайт (10%)
Выравнивание : Соединение по промежуткам
Продолжительность промежутка : 42 мс. (1,00 видеокадр)
Время предзагрузки промежутка : 504 мс.
Библиотека кодирования : LAME3.99r
Настройки программы : -m s -V 4 -q 2 -lowpass 17 -b 128
pb.wtf



Скачать Белое солнце пустыни через торрент http://i1.imageban.ru/out/2015/11/15/46b65e1eee14a71d960fd393fc752253.png Скачать, смотреть онлайн Белое солнце пустыни бесплантно в хорошем качестве Описание: Двадцатые годы прошлого века, Туркестан, гражданская война. "Классовые сражения на сегодняшний день в общем и целом завершены", и ... 10 10 3
Info! Золотая раздача, скачанное не засчитывается.
Торрент: Зарегистрирован [2015-11-15 10:14] · скачан: 71 раз
Статус: √ проверено
Размер: 745 MB
Как cкачать? Как скачать Белое солнце пустыни через торрент | UTorrent

% Раздел Тема Автор DL S | L
Детективы, Боевики, Триллеры [ 333 MB ] Валентин Ежов Рустам Ибрагимбеков - Белое солнце пустыни [Людмила Ларионова 2005 96 kbps MP3] urapavel Скачать
1 | 0
Документальные фильмы и телепередачи [ 3.17 GB ] Белое солнце пустыни. От заката до восхода [2016 Документальный HDTV Оригинальный] Бумер Скачать
1 | 0
Кино СССР [ 1.46 GB ] Белое солнце пустыни [1969 СССР военный BDRip-AVC от AVP Studio] AVP Studio Скачать
1 | 0
Кино СССР [ 6.57 GB ] Белое солнце пустыни [1969 СССР военный BDRip 1080p от AVP Studio] AVP Studio Скачать
1 | 0
Кино СССР [ 1.46 GB ] Белое солнце пустыни [1969 СССР военный BDRip от AVP Studio] AVP Studio Скачать
1 | 0
Фильмы (HD 720p, 1080p) (48-60 fps) [ 13.72 GB ] Белое солнце пустыни [1969 BDRip 1080p 60fps] Ворон Скачать
2 | 0
Наши фильмы (Blu-ray, BD-Remux, HDDVD) [ 20.59 GB ] Белое солнце пустыни [1969 Blu-ray Оригинал] Бумер Скачать
1 | 0

28-11-2019 20:33  

Отключить всю рекламу на сайте

    Дорогой пользователь! Огромная просьба, поблагодарите релизера, оцените раздачу и оставьте свои комментарий, если Вы скачали Белое солнце пустыни через торрент бесплатно!
    Комментировать посты могут только пользователи прошедшие не сложную регистрацию
    Показать сообщения:    

    Белое солнце пустыни через торрент
    Скачать бесплатно Белое солнце пустыни
    Белое солнце пустыни скачать торрент
    Белое солнце пустыни смотреть онлайн
    Cкачать фильм Белое солнце пустыни бесплатно
    Белое солнце пустыни скачать торрент в хорошем качестве
    Белое солнце пустыни смотреть онлайн бесплатно в хорошем качестве


    Вы не можете начинать темы
    Вы не можете отвечать на сообщения
    Вы не можете редактировать свои сообщения
    Вы не можете удалять свои сообщения
    Вы не можете голосовать в опросах
    Вы не можете прикреплять файлы к сообщениям
    Вы можете скачивать файлы