Ссылка на приватное зеркало нашего сайта всего за 1$. Внимание количество ограничено!!!

2 сезон

iTunes

1 сезон

1

iTunes

iTunes

iTunes

1 сезон

RePack

30

ИГРА 18+

pack

ВАЖНО

!!Акция!!

Alien_RageХит недели

RePack

MK11
pack

Забери бонус

RePack

jed

!!Акция!!

Alien_Rage

RePack

fifa19

RePack

Assassins Creed: Odyssey

RePack

NEED FOR SPEED™ PAYBACK

4 сезон

9 сезон

Бесстыжие 9 сезон

Все сериалы

все сериалы на PB.wtf

RePack

FAR CRY 5
  

Марафон для трех граций / Серии: 1-4 из 4 (Алексей Праздников) [2015, иронический детектив, SATRip-AVC] pb.wtf

Марафон для трех граций через торрент pb.wtf

Размер: 2.34 GB | Добавлен: 4 года 11 мес. назад | Торрент скачан:195 раз
Скачать  

15-11-2015 17:51 Марафон для трех граций Скачать торрент  

Марафон для трех граций

Год выпуска: 2015
Производство: Россия,ООО «Студия Грин-Фильм» по заказу студии «Телемастер»
Жанр: иронический детектив
Продолжительность: 00:43:00
Субтитры: нет

Режиссёр: Алексей Праздников

В ролях: Алла Юганова, Юлия Такшина, Екатерина Копанова, Александр Макогон, Нодар Джанелидзе, Геннадий Смирнов, Александр Ленин, Ольга Сухорукова, Андрей Чуманов, Ольга Красковская, Алексей Мышинский, Александр Матвеев (II), Андрей Некрасов (III), Олег Алмазов, Анна Марущенко

Описание: Встретившись в кафе, подруги обращают внимание на странную пару за соседним столом: женщина тайно передает мужчине конверт. А несколько минут спустя они видят в туалете на полу того самого мужчину застреленным. До приезда полиции Катя успела не только случайно оставить свои отпечатки на пистолете, но и прихватить конверт покойника с деньгами и фотографиями. И теперь нашим девушкам больше ничего не остается, кроме как самим расследовать это дело, пока Катю не посадили за убийство.




Качество: SATRip
Формат: MKV
Видео кодек: H.264
Аудио кодек: AC3
Видео: MPEG-4 AVC, 720х400,25fps,1924 Кбит/сек,Bits/Pixel 0.240
Аудио: AC3, 48 kHz, ~192 Kbps, 2 канала
Общее
Уникальный идентификатор : 197865817782991407656411569692688918520 (0x94DB92020EB096C38751F50584AA27F8)
Полное имя : F:\Марафон для трех граций\01 серия.mkv
Формат : Matroska
Версия формата : Version 2
Размер файла : 600 Мбайт
Продолжительность : 43 м.
Общий поток : 1924 Кбит/сек
Дата кодирования : UTC 2015-11-15 15:47:30
Программа кодирования : mkvmerge v7.8.0 ('River Man') 32bit built on Apr 3 2015 12:11:22
Библиотека кодирования : libebml v1.3.1 + libmatroska v1.4.2

Видео
Идентификатор : 1
Формат : AVC
Формат/Информация : Advanced Video Codec
Профиль формата : High@L4.1
Параметр CABAC формата : Да
Параметр ReFrames формата : 9 кадров
Идентификатор кодека : V_MPEG4/ISO/AVC
Продолжительность : 43 м.
Битрейт : 1730 Кбит/сек
Ширина : 720 пикселей
Высота : 400 пикселей
Соотношение сторон : 16:9
Режим частоты кадров : Постоянный
Частота кадров : 25,000 кадров/сек
Цветовое пространство : YUV
Субдискретизация насыщенности : 4:2:0
Битовая глубина : 8 бит
Тип развёртки : Прогрессивная
Бит/(Пиксели*Кадры) : 0.240
Размер потока : 528 Мбайт (88%)
Библиотека кодирования : x264 core 146 r2538 121396c
Настройки программы : cabac=1 / ref=9 / deblock=1:-3:-3 / analyse=0x3:0x133 / me=umh / subme=9 / psy=1 / psy_rd=1.00:0.00 / mixed_ref=1 / me_range=16 / chroma_me=1 / trellis=2 / 8x8dct=1 / cqm=0 / deadzone=21,11 / fast_pskip=1 / chroma_qp_offset=-2 / threads=2 / lookahead_threads=4 / sliced_threads=0 / nr=0 / decimate=1 / interlaced=0 / bluray_compat=0 / constrained_intra=0 / bframes=9 / b_pyramid=2 / b_adapt=2 / b_bias=0 / direct=3 / weightb=1 / open_gop=0 / weightp=2 / keyint=250 / keyint_min=25 / scenecut=40 / intra_refresh=0 / rc_lookahead=40 / rc=2pass / mbtree=1 / bitrate=1730 / ratetol=1.0 / qcomp=0.60 / qpmin=0 / qpmax=69 / qpstep=4 / cplxblur=20.0 / qblur=0.5 / ip_ratio=1.40 / aq=1:1.00
Default : Да
Forced : Нет
Цветовой диапазон : Limited
Основные цвета : BT.601 PAL
Характеристики трансфера : BT.470 System B, BT.470 System G
Коэффициенты матрицы : BT.601

Аудио
Идентификатор : 2
Формат : AC-3
Формат/Информация : Audio Coding 3
Расширение режима : CM (complete main)
Параметр Endianness формата : Big
Идентификатор кодека : A_AC3
Продолжительность : 43 м.
Вид битрейта : Постоянный
Битрейт : 192 Кбит/сек
Каналы : 2 канала
Расположение каналов : Front: L R
Частота : 48,0 КГц
Метод сжатия : С потерями
Размер потока : 59,9 Мбайт (10%)
Default : Да
Forced : Нет
Внимание! Раздача ведётся путём добавления новых серий; при каждом добавлении создаётся новый торрент.
Чтобы начать докачку новой серии, пользователям необходимо сделать следующее:
1. Остановить скачивание;
2. Удалить старый торрент у себя из клиента (старые серии удалять не надо);
3. Скачать новый торрент и запустить его у себя в клиенте вместо старого, при этом указать клиенту путь в старую папку куда и должно происходить скачивание новых серий. Ваш клиент при этом должен произвести хеширование (проверку) старой папки и будет докачивать только те серии, которых у вас ещё нет. Старые серии при этом не удаляются, а продолжают раздаваться! Eсли вы уже удалили старые серии, то предотвратить повторную закачку старых серий можно, отжав галочку в соответствующих местах при запуске нового торрента.
Рекламы нет.Добавлена 3-4 серия.pb.wtf



Скачать Марафон для трех граций через торрент http://s017.radikal.ru/i407/1511/6c/2bec7ff15d5a.jpg Скачать фильм Марафон для трех граций через торрент бесплантно в хорошем качестве Описание: Встретившись в кафе, подруги обращают внимание на странную пару за соседним столом: женщина тайно передает мужчине конверт. А ... 8.4 10 7
Торрент: Зарегистрирован [2015-11-15 23:44] · скачан: 195 раз
Статус: √ проверено
Размер: 2.34 GB
Как cкачать? Как скачать Марафон для трех граций через торрент | qTorrent

28-11-2019 20:33  

Отключить всю рекламу на сайте

    Дорогой пользователь! Огромная просьба, поблагодарите релизера, оцените раздачу и оставьте свои комментарий, если Вы скачали Марафон для трех граций через торрент бесплатно! Внесите свою лепту в развитие PiratBit!
    Комментировать посты могут только пользователи прошедшие не сложную регистрацию
    Показать сообщения:    

    Марафон для трех граций через торрент
    Скачать бесплатно Марафон для трех граций
    Марафон для трех граций скачать торрент
    Марафон для трех граций смотреть онлайн
    Cкачать фильм Марафон для трех граций бесплатно
    Марафон для трех граций скачать торрент в хорошем качестве
    Марафон для трех граций смотреть онлайн бесплатно в хорошем качестве


    Вы не можете начинать темы
    Вы не можете отвечать на сообщения
    Вы не можете редактировать свои сообщения
    Вы не можете удалять свои сообщения
    Вы не можете голосовать в опросах
    Вы не можете прикреплять файлы к сообщениям
    Вы можете скачивать файлы