Ссылка на приватное зеркало всего за 1$. Внимание количество ограничено!!!

iTunes

iTunes

iTunes

1

iTunes

iTunes

iTunes

iTunes

iTunes

30
pack

$ от Little Big

ВАЖНО

!!Акция!!

Alien_RageХит недели

RePack

Resident Evil 21

ИГРА 18+

pack

RePack

jed

!!Акция!!

Alien_Rage

RePack

fifa19

RePack

Assassins Creed: Odyssey

RePack

NEED FOR SPEED™ PAYBACK

4 сезон

9 сезон

Бесстыжие 9 сезон

Все сериалы

все сериалы на PB.wtf

RePack

FAR CRY 5
  

Крепость: щитом и мечом (Федор Дмитриев) [2015, мультфильм, приключения, военный, WEB-DLRip-AVC, [Русский] pb.wtf

Крепость: щитом и мечом через торрент pb.wtf

Размер: 1.09 GB | Добавлен: 4 года 7 мес. назад | Торрент скачан:827 раз
Скачать  

16-11-2015 07:45 Крепость: щитом и мечом Скачать торрент  

Крепость: щитом и мечом
««Щитом и мечом»»


Год выпуска: 2015
Страна: Россия
Жанр: мультфильм, приключения, военный
Продолжительность: 01:16:43
Перевод: Не требуется [Русский]
Режиссер: Федор Дмитриев
В ролях:

Пётр Фёдоров (озвучка), Евгений Стычкин (озвучка)
Описание:
1609 год. Идет война. Польско-литовские войска взяли в осаду Смоленск, но русский гарнизон во главе с воеводой Михаилом Шеиным готов держать оборону до конца. Смоленск - главная крепость на пути захватчиков к Москве, и его нельзя сдавать без боя. Об этом знают даже дети.
Мальчик Сашка лепит самодельные бомбы из теста и колдует в защиту города - вызывает на помощь Царя с Огненным щитом и Пламенным копьем. Пока волшебный царь не пришел, Сашка и его друг Федор просятся в помощники к воеводе. Им предстоит разрушить коварные планы польского короля Сигизмунда Третьего и справиться с нечистой силой, что по ночам бродит по осажденной крепости.

Качество: WEB-DLRip-AVC.Исходник.WEB-DLRip 720p) Rip by White Smoke

Формат: MKV
Видео: AVC, 1024x428 (2.40:1), 1650 kbps, 24 fps, 0,157 bpp
Аудио: AC3 / 5.1 / 48 kHz / 384 kbps / 16 bit

Код:

General
Unique ID                                : 219831751914045386585408966087736262066 (0xA5620E2CFAD146E29E67DEF1FE777DB2)
Complete name                            : C:\Kpep0Ct.Shitom.i.Me40m.2015.WEB DLRip-AVC.by.White Smoke.mkv
Format                                   : Matroska
Format version                           : Version 4 / Version 2
File size                                : 1.09 GiB
Duration                                 : 1h 16mn
Overall bit rate                         : 2 033 Kbps
Encoded date                             : UTC 2015-11-16 07:08:52
Writing application                      : mkvmerge v6.8.0 ('Theme for Great Cities') 64bit built on Mar  2 2014 21:34:26
Writing library                          : libebml v1.3.0 + libmatroska v1.4.1

Video
ID                                       : 1
Format                                   : AVC
Format/Info                              : Advanced Video Codec
Format profile                           : High@L4.1
Format settings, CABAC                   : Yes
Format settings, ReFrames                : 12 frames
Codec ID                                 : V_MPEG4/ISO/AVC
Duration                                 : 1h 16mn
Bit rate                                 : 1 650 Kbps
Width                                    : 1 024 pixels
Height                                   : 428 pixels
Display aspect ratio                     : 2.40:1
Frame rate                               : 24.000 fps
Color space                              : YUV
Chroma subsampling                       : 4:2:0
Bit depth                                : 8 bits
Scan type                                : Progressive
Bits/(Pixel*Frame)                       : 0.157
Stream size                              : 883 MiB (79%)
Writing library                          : x264 core 146 r2538 121396c
Encoding settings                        : cabac=1 / ref=12 / deblock=1:-3:-3 / analyse=0x3:0x113 / me=umh / subme=9 / psy=1 / psy_rd=1.00:0.00 / mixed_ref=1 / me_range=32 / chroma_me=1 / trellis=1 / 8x8dct=1 / cqm=0 / deadzone=21,11 / fast_pskip=1 / chroma_qp_offset=-2 / threads=6 / lookahead_threads=1 / sliced_threads=0 / nr=0 / decimate=1 / interlaced=0 / bluray_compat=0 / constrained_intra=0 / bframes=10 / b_pyramid=2 / b_adapt=2 / b_bias=10 / direct=1 / weightb=0 / open_gop=0 / weightp=2 / keyint=240 / keyint_min=24 / scenecut=40 / intra_refresh=0 / rc_lookahead=40 / rc=2pass / mbtree=1 / bitrate=1650 / ratetol=1.0 / qcomp=0.65 / qpmin=0 / qpmax=69 / qpstep=4 / cplxblur=20.0 / qblur=0.5 / ip_ratio=1.40 / aq=1:1.00
Language                                 : English
Default                                  : Yes
Forced                                   : No

Audio
ID                                       : 2
Format                                   : AC-3
Format/Info                              : Audio Coding 3
Mode extension                           : CM (complete main)
Codec ID                                 : A_AC3
Duration                                 : 1h 16mn
Bit rate mode                            : Constant
Bit rate                                 : 384 Kbps
Channel(s)                               : 6 channels
Channel positions                        : Front: L C R, Side: L R, LFE
Sampling rate                            : 48.0 KHz
Bit depth                                : 16 bits
Compression mode                         : Lossy
Stream size                              : 211 MiB (19%)
Default                                  : Yes
Forced                                   : No


© Оформление by White Smoke pb.wtf



Скачать Крепость: щитом и мечом через торрент http://i66.fastpic.ru/big/2015/1116/1a/4af0ac1576d568b4d3ff7fb980422b1a.jpg Скачать фильм Крепость: щитом и мечом через торрент бесплантно в хорошем качестве Описание: 1609 год. Идет война. Польско-литовские войска взяли в осаду Смоленск, но русский гарнизон во главе с воеводой Михаилом Шеиным ... 10 10 28
Info! Золотая раздача, скачанное не засчитывается.
Торрент: Зарегистрирован [2015-11-16 07:45] · скачан: 827 раз
Статус: √ проверено
Размер: 1.09 GB
Как cкачать? Как скачать Крепость: щитом и мечом через торрент | qTorrent

% Раздел Тема Автор DL S | L
Наши Мультфильмы (HD, WEB-DL 720p, 1080p) [ 2.61 GB ] Крепость: щитом и мечом [2015 мультфильм военный WEB-DL 1080p] [Русский] -Lexx- Скачать
1 | 0
Наши Мультфильмы (HD, WEB-DL 720p, 1080p) [ 1.46 GB ] Крепость: щитом и мечом [2015 мультфильм военный BDRip 720p] [] potroks Скачать
1 | 0
Наши мультфильмы [ 1.46 GB ] Крепость: щитом и мечом [2015 мультфильм военный BDRip] [] Twi7ter Скачать
1 | 0
Наши мультфильмы [ 1.09 GB ] Крепость: щитом и мечом [2015 Россия мультфильм военный BDRip-AVC от sokol_ok] [] sokol_ok Скачать
2 | 0
R.G.Resident - Мультфильмы, Видео [ 1.16 GB ] Крепость: щитом и мечом [2015 мультфильм военный BDRip-AVC - [ BD RUS] R.G.Resident Ворон Скачать
1 | 0
Наши Мультфильмы (HD, WEB-DL 720p, 1080p) [ 2.89 GB ] Крепость: щитом и мечом [2015 мультфильм военный BDRip 720p] [] potroks Скачать
1 | 0
Наши Мультфильмы (HD, WEB-DL 720p, 1080p) [ 13.9 GB ] Крепость: щитом и мечом [2015 мультфильм военный семейны Blu-ray] / Russian Mafia Скачать
1 | 0

28-11-2019 20:33  

Отключить всю рекламу на сайте

16-11-2015 07:58 Крепость: щитом и мечом Скачать торрент  

Спасибо Сань, забираюpb.wtf



16-11-2015 09:55 Крепость: щитом и мечом Скачать торрент  

Судя по рейтингу можно глянуть, спасибо раздающему)!pb.wtf



18-11-2015 21:23 Крепость: щитом и мечом Скачать торрент  

Отличный мульт! Смотрели с сыном, его не оторвать было. Спасибо за раздачу!pb.wtf



    Дорогой пользователь! Огромная просьба, поблагодарите релизера, оцените раздачу и оставьте свои комментарий, если Вы скачали Крепость: щитом и мечом через торрент бесплатно! Внесите свою лепту в развитие PiratBit!
    Комментировать посты могут только пользователи прошедшие не сложную регистрацию
    Показать сообщения:    

    Крепость: щитом и мечом через торрент
    Скачать бесплатно Крепость: щитом и мечом
    Крепость: щитом и мечом скачать торрент
    Крепость: щитом и мечом смотреть онлайн
    Cкачать фильм Крепость: щитом и мечом бесплатно
    Крепость: щитом и мечом скачать торрент в хорошем качестве
    Крепость: щитом и мечом смотреть онлайн бесплатно в хорошем качестве


    Вы не можете начинать темы
    Вы не можете отвечать на сообщения
    Вы не можете редактировать свои сообщения
    Вы не можете удалять свои сообщения
    Вы не можете голосовать в опросах
    Вы не можете прикреплять файлы к сообщениям
    Вы можете скачивать файлы