Ссылка на приватное зеркало нашего сайта всего за 1$. Внимание количество ограничено!!!

2 сезон

iTunes

1 сезон

1

2 сезон

2 сезон

iTunes

1 сезон

RePack

30

Ultimate

ВАЖНО

ИГРА 18+

pack

RePack

MK11
pack

Забери бонус

RePack

jed

!!Акция!!

Alien_Rage

RePack

fifa19

RePack

Assassins Creed: Odyssey

RePack

NEED FOR SPEED™ PAYBACK

4 сезон

9 сезон

Бесстыжие 9 сезон

Все сериалы

все сериалы на PB.wtf

RePack

FAR CRY 5
  

Субурра / Suburra (Стефано Соллима) [2015, криминал, WEBRip] DVO pb.wtf

Субурра через торрент pb.wtf

Размер: 2.05 GB | Добавлен: 5 лет назад | Торрент скачан:369 раз
Скачать  

16-11-2015 16:32 Субурра Скачать торрент  


Субурра / Suburra


ИНФОРМАЦИЯ:
Год выпуска:2015
Страна: Италия, Франция
Жанр: криминал
Продолжительность: 02:14:49
Перевод: Любительский двухголосый [den904, DeadSno]
Режиссер: Стефано Соллима

В Ролях:


Пьерфранческо Фавино (Filippo Malgradi), Жан-Юг Англад, Элио Джермано (Sebastiano), Клаудио Амендола (Samurai), Лидия Витале, Грета Скарано (Viola), Джулия Гориетти (Sabrina), Антонелло Фассари, Алессандро Борги (Numero 8), Франческо Сечи (Ispettore Questura)

Описание:
Гангстер по прозвищу Самурай хочет превратить набережную Рима в новый Лас-Вегас. Все местные криминальные авторитеты согласились работать для достижения общей цели. Но этот мир продлится недолго...

  • Мировая премьера:15 октября 2015

    ТЕХ.ДАННЫЕ:
    Качество: WEBRip
    Формат: AVI
    Видео: XviD, 720x304 (2.35:1), 1553 kbps, 24 fps, 0,296 bpp
    Аудио №1: AC3 / 5.1 / 48 kHz / 384 kbps / Russian
    Аудио №2: AC3 / 2.0 / 48 kHz / 160 kbps / Italian


    General
    Complete name : D:\Торенты\Suburra.2015.L2.WEBRip.2100mb.avi
    Format : AVI
    Format/Info : Audio Video Interleave
    File size : 2.07 GiB
    Duration : 2h 14mn
    Overall bit rate : 2 195 Kbps
    Writing application : VirtualDubModRus 1.5.10.2 (build 2542/release)
    Writing library : VirtualDubMod build 2542/release

    Video
    ID : 0
    Format : MPEG-4 Visual
    Format profile : Advanced Simple@L5
    Format settings, BVOP : 2
    Format settings, QPel : No
    Format settings, GMC : No warppoints
    Format settings, Matrix : Default (H.263)
    Codec ID : XVID
    Codec ID/Hint : XviD
    Duration : 2h 14mn
    Bit rate : 1 553 Kbps
    Width : 720 pixels
    Height : 304 pixels
    Display aspect ratio : 2.35:1
    Frame rate : 24.000 fps
    Color space : YUV
    Chroma subsampling : 4:2:0
    Bit depth : 8 bits
    Scan type : Progressive
    Compression mode : Lossy
    Bits/(Pixel*Frame) : 0.296
    Stream size : 1.46 GiB (71%)
    Writing library : XviD 1.2.1 (UTC 2008-12-04)

    Audio #1
    ID : 1
    Format : AC-3
    Format/Info : Audio Coding 3
    Mode extension : CM (complete main)
    Codec ID : 2000
    Duration : 2h 14mn
    Bit rate mode : Constant
    Bit rate : 384 Kbps
    Channel(s) : 6 channels
    Channel positions : Front: L C R, Side: L R, LFE
    Sampling rate : 48.0 KHz
    Bit depth : 16 bits
    Compression mode : Lossy
    Stream size : 370 MiB (17%)
    Alignment : Split accross interleaves

    Audio #2
    ID : 2
    Format : AC-3
    Format/Info : Audio Coding 3
    Mode extension : CM (complete main)
    Codec ID : 2000
    Duration : 2h 14mn
    Bit rate mode : Constant
    Bit rate : 160 Kbps
    Channel(s) : 2 channels
    Channel positions : Front: L R
    Sampling rate : 48.0 KHz
    Bit depth : 16 bits
    Compression mode : Lossy
    Stream size : 154 MiB (7%)
    Alignment : Split accross interleaves
    Скриншоты:

    © Оформление by .::Ворон::.
    pb.wtf



  • Скачать Субурра через торрент http://pic.kartinco.top/images/6/ordi9.jpg Скачать фильм Субурра через торрент бесплантно в хорошем качестве Описание: Гангстер по прозвищу Самурай хочет превратить набережную Рима в новый Лас-Вегас. Все местные криминальные авторитеты согласились ... 8.6 10 15
    Info! Золотая раздача, скачанное не засчитывается.
    Торрент: Зарегистрирован [2015-11-16 16:32] · скачан: 369 раз
    Статус: T временная
    Размер: 2.05 GB
    Как cкачать? Как скачать Субурра через торрент | qTorrent

    28-11-2019 20:33  

    Отключить всю рекламу на сайте

    16-11-2015 21:28 Субурра Скачать торрент  

    Спасибо)pb.wtf



    16-11-2015 21:35 Субурра Скачать торрент  

    тема сисек почти раскрыта!pb.wtf



    17-11-2015 05:53 Субурра Скачать торрент  

    Посмотрел скрины-посмотрел фильм. :sarcastic_blum: :sarcastic_blum: П.С. сарказм.pb.wtf



      Дорогой пользователь! Огромная просьба, поблагодарите релизера, оцените раздачу и оставьте свои комментарий, если Вы скачали Субурра через торрент бесплатно! Внесите свою лепту в развитие PiratBit!
      Комментировать посты могут только пользователи прошедшие не сложную регистрацию
      Показать сообщения:    

      Субурра через торрент
      Скачать бесплатно Субурра
      Субурра скачать торрент
      Субурра смотреть онлайн
      Cкачать фильм Субурра бесплатно
      Субурра скачать торрент в хорошем качестве
      Субурра смотреть онлайн бесплатно в хорошем качестве


      Вы не можете начинать темы
      Вы не можете отвечать на сообщения
      Вы не можете редактировать свои сообщения
      Вы не можете удалять свои сообщения
      Вы не можете голосовать в опросах
      Вы не можете прикреплять файлы к сообщениям
      Вы можете скачивать файлы