Ссылка на приватное зеркало нашего сайта всего за 1$. Внимание количество ограничено!!!

2 сезон

iTunes

1 сезон

1

iTunes

iTunes

iTunes

1 сезон

RePack

30

ИГРА 18+

pack

ВАЖНО

!!Акция!!

Alien_RageХит недели

RePack

MK11
pack

Забери бонус

RePack

jed

!!Акция!!

Alien_Rage

RePack

fifa19

RePack

Assassins Creed: Odyssey

RePack

NEED FOR SPEED™ PAYBACK

4 сезон

9 сезон

Бесстыжие 9 сезон

Все сериалы

все сериалы на PB.wtf

RePack

FAR CRY 5
  

Неподсудные / Серии: 1-8 из 8 (Мурад Алиев) [2015, криминал, SATRip-AVC] pb.wtf

Неподсудные через торрент pb.wtf

Размер: 4.69 GB | Добавлен: 4 года 11 мес. назад | Торрент скачан:238 раз
Скачать  

16-11-2015 17:09 Неподсудные Скачать торрент  

Неподсудные

Год выпуска: 2015
Производство: Россия,Централ Партнершип
Жанр: криминальный фильм
Продолжительность: 00:43:00
Субтитры: нет

Режиссёр: Мурад Алиев

В ролях: Игорь Петренко, Кирилл Плетнёв, Сергей Бурунов, Леван Мсхиладзе, Николай Добрынин, Даниил Спиваковский, Сергей Газаров, Антон Хабаров, Елена Николаева (II), Евгений Князев, Петар Зекавица

Описание: События фильма происходят весной 2001 года. Бывший офицер госбезопасности Андрей Воронов попадает под следствие. Его обвиняют в попытке похищения фигуранта громкого уголовного дела, а по сути - в пособничестве коррумпированным чиновникам. Андрей обращается к событиям 10-летней давности, когда он познакомился с человеком, который был на прицеле не только у российских, но и у мировых спецслужб... Чтобы спасти свое имя и репутацию, Воронов должен не просто выжить в смертельной партии, но из пешки превратиться в полноправного игрока.




Качество: SATRip
Формат: MKV
Видео кодек: H.264
Аудио кодек: AC3
Видео: MPEG-4 AVC, 720х400,25fps,1969 Кбит/сек,Bits/Pixel 0.247
Аудио: AC3, 48 kHz, ~192 Kbps, 2 канала
Общее
Уникальный идентификатор : 190523866961723909474775185942045659501 (0x8F558FE285AA55CD8D6259385ECA116D)
Полное имя : G:\Неподсудные\01 серия.mkv
Формат : Matroska
Версия формата : Version 2
Размер файла : 600 Мбайт
Продолжительность : 42 м.
Общий поток : 1969 Кбит/сек
Дата кодирования : UTC 2015-11-16 16:40:05
Программа кодирования : mkvmerge v7.8.0 ('River Man') 32bit built on Apr 3 2015 12:11:22
Библиотека кодирования : libebml v1.3.1 + libmatroska v1.4.2

Видео
Идентификатор : 1
Формат : AVC
Формат/Информация : Advanced Video Codec
Профиль формата : High@L4.1
Параметр CABAC формата : Да
Параметр ReFrames формата : 9 кадров
Идентификатор кодека : V_MPEG4/ISO/AVC
Продолжительность : 42 м.
Битрейт : 1775 Кбит/сек
Ширина : 720 пикселей
Высота : 400 пикселей
Соотношение сторон : 16:9
Режим частоты кадров : Постоянный
Частота кадров : 25,000 кадров/сек
Цветовое пространство : YUV
Субдискретизация насыщенности : 4:2:0
Битовая глубина : 8 бит
Тип развёртки : Прогрессивная
Бит/(Пиксели*Кадры) : 0.247
Размер потока : 530 Мбайт (88%)
Библиотека кодирования : x264 core 146 r2538 121396c
Настройки программы : cabac=1 / ref=9 / deblock=1:-3:-3 / analyse=0x3:0x133 / me=umh / subme=9 / psy=1 / psy_rd=1.00:0.00 / mixed_ref=1 / me_range=32 / chroma_me=1 / trellis=2 / 8x8dct=1 / cqm=0 / deadzone=21,11 / fast_pskip=1 / chroma_qp_offset=-2 / threads=2 / lookahead_threads=4 / sliced_threads=0 / nr=0 / decimate=1 / interlaced=0 / bluray_compat=0 / constrained_intra=0 / bframes=9 / b_pyramid=2 / b_adapt=1 / b_bias=0 / direct=3 / weightb=1 / open_gop=0 / weightp=2 / keyint=250 / keyint_min=25 / scenecut=40 / intra_refresh=0 / rc_lookahead=40 / rc=2pass / mbtree=1 / bitrate=1775 / ratetol=1.0 / qcomp=0.60 / qpmin=0 / qpmax=69 / qpstep=4 / cplxblur=20.0 / qblur=0.5 / ip_ratio=1.40 / aq=1:1.00
Default : Да
Forced : Нет
Цветовой диапазон : Limited
Основные цвета : BT.601 PAL
Характеристики трансфера : BT.470 System B, BT.470 System G
Коэффициенты матрицы : BT.601

Аудио
Идентификатор : 2
Формат : AC-3
Формат/Информация : Audio Coding 3
Расширение режима : CM (complete main)
Параметр Endianness формата : Big
Идентификатор кодека : A_AC3
Продолжительность : 42 м.
Вид битрейта : Постоянный
Битрейт : 192 Кбит/сек
Каналы : 2 канала
Расположение каналов : Front: L R
Частота : 48,0 КГц
Метод сжатия : С потерями
Размер потока : 58,5 Мбайт (10%)
Default : Да
Forced : Нет
Внимание! Раздача ведётся путём добавления новых серий; при каждом добавлении создаётся новый торрент.
Чтобы начать докачку новой серии, пользователям необходимо сделать следующее:
1. Остановить скачивание;
2. Удалить старый торрент у себя из клиента (старые серии удалять не надо);
3. Скачать новый торрент и запустить его у себя в клиенте вместо старого, при этом указать клиенту путь в старую папку куда и должно происходить скачивание новых серий. Ваш клиент при этом должен произвести хеширование (проверку) старой папки и будет докачивать только те серии, которых у вас ещё нет. Старые серии при этом не удаляются, а продолжают раздаваться! Eсли вы уже удалили старые серии, то предотвратить повторную закачку старых серий можно, отжав галочку в соответствующих местах при запуске нового торрента.
Рекламы нет.Добавлена 7-8 серия.pb.wtf



Скачать Неподсудные через торрент http://s49.radikal.ru/i124/1511/09/62993b432ec9.jpg Скачать фильм Неподсудные через торрент бесплантно в хорошем качестве Описание: События фильма происходят весной 2001 года. Бывший офицер госбезопасности Андрей Воронов попадает под следствие. Его обвиняют в ... 8.8 10 12
Торрент: Зарегистрирован [2015-11-19 16:54] · скачан: 238 раз
Статус: √ проверено
Размер: 4.69 GB
Как cкачать? Как скачать Неподсудные через торрент | qTorrent

% Раздел Тема Автор DL S | L
Наши сериалы [ 20.38 GB ] Неподсудные / Сезон: 1 / Серии: 1-8 из 8 [2015 HDTV 1080i] bober100 Скачать
1 | 0
Наши сериалы [ 10.4 GB ] Неподсудные / Сезон: 1 / Серии: 1-8 из 8 [2015 WEB-DL 1080p] bober100 Скачать
1 | 0
Наши сериалы [ 12.45 GB ] Неподсудные / Сезон: 1 / Серии: 1-8 из 8 [2015 HDTVRip 720p] bober100 Скачать
1 | 0
Наши сериалы [ 5.29 GB ] Неподсудные / Сезон: 1 / Серии: 1-8 из 8 [2015 HDTVRip-AVC] bober100 Скачать
1 | 0
Наши сериалы [ 4.29 GB ] Неподсудные / Сезон: 1 / Серии: 1-8 из 8 [2015 HDTVRip] bober100 Скачать
1 | 0
Наши сериалы [ 4.88 GB ] Неподсудные Сезон: 1 / Серия 1-8 из 8 [2015 SATRip [Русский] White Smoke Скачать
1 | 0

28-11-2019 20:33  

Отключить всю рекламу на сайте

19-11-2015 18:22 Неподсудные Скачать торрент  

Как фильм?????pb.wtf



21-11-2015 02:07 Неподсудные Скачать торрент  

Фильм норм :)pb.wtf



    Дорогой пользователь! Огромная просьба, поблагодарите релизера, оцените раздачу и оставьте свои комментарий, если Вы скачали Неподсудные через торрент бесплатно! Внесите свою лепту в развитие PiratBit!
    Комментировать посты могут только пользователи прошедшие не сложную регистрацию
    Показать сообщения:    

    Неподсудные через торрент
    Скачать бесплатно Неподсудные
    Неподсудные скачать торрент
    Неподсудные смотреть онлайн
    Cкачать фильм Неподсудные бесплатно
    Неподсудные скачать торрент в хорошем качестве
    Неподсудные смотреть онлайн бесплатно в хорошем качестве


    Вы не можете начинать темы
    Вы не можете отвечать на сообщения
    Вы не можете редактировать свои сообщения
    Вы не можете удалять свои сообщения
    Вы не можете голосовать в опросах
    Вы не можете прикреплять файлы к сообщениям
    Вы можете скачивать файлы