Мега распродажа FORZA HORIZON 4 ULTIMATE+ВСЕ DLC+ОНЛАЙН всего за 499р. 349 руб. (супер цена). Внимание количество ограничено!!!

iTunes

1+1

iTunes

мы

iTunes

1

1 сезон

Чернобыль

1 сезон

Ральф против интернета

Лицензия

ПШазам

8 сезон

Игра престолов

Лицензия

30
pack

ВАЖНО

!!Акция!!

Alien_RageХит недели

RePack

Resident Evil 21

ИГРА 18+

pack

RePack

Metro:Exodus

!!Акция!!

Alien_Rage

RePack

fifa19

RePack

Assassins Creed: Odyssey

RePack

NEED FOR SPEED™ PAYBACK

3 сезон

9 сезон

Бесстыжие 9 сезон

Все сериалы

все сериалы на PB.wtf

RePack

FAR CRY 5
Ребята, катастрофически не хватает 2730р. для оплаты серверов за ИЮНЬ (всвязи с блокировками трафик упал в 3 раза), 1-2р., выручайте.
  

Профиль серийного убийцы / Halifax f.p: Afraid of the Dark (Стив Джодрелл ) [1998, триллер, DVDRip, MVO (Перец), AVO (А.Дольский), Оригинал (Английский)] pb.wtf

Профиль серийного убийцы через торрент pb.wtf

Размер: 1.36 GB | Добавлен: 3 года 8 мес. назад | Торрент скачан:7 раз
Скачать  

16-11-2015 19:09 Профиль серийного убийцы Скачать торрент  

Профиль серийного убийцы / Halifax f.p: Afraid of the Dark
Год выпуска: 1998
Страна: Австралия
Жанр: триллер
Продолжительность: 01:42:17
Перевод:
Профессиональный (многоголосый) Перец
Авторский (одноголосый закадровый) - А.Дольский
Оригинал (Английский)
Режиссер: Стив Джодрелл
В ролях:

Ребекка Гибни (Jane Halifax), Шэйн Коннор (Ray), Хью Джекман (Eric Ringer), Сьюзэн Лайонс (Helen de Castro), Кэтрин Уилкин (Marion Walters, Jane's Analyst), Бэрри Лэнгриш (Martin Ledger), Майлс Коллинз (Detective Twomey), Бретт Суэйн (Lauper), Мэттью Кросби (Vassalo), Брайан Маршалл (John Halifax, Jane's Father), Matylda Buczko (Young Jane), Стивен Уитэйкер (Tabloid Photographer)
Описание:
Судебный психолог Джейн Халифакс приглашается помочь в расследовании загадочного массового убийства на бензоколонке. Выжил только автомеханик Рэй, но ни одной улики или зацепки, могущей определить убийцу нет. Джейн надлежит нарисовать психологический портрет маньяка, но сама она находится в тяжелой депрессии и ходит к психиатру. К тому же резня на бензоколонке всколыхнула в её памяти обстоятельства гибели отца... Ввести Джейн в курс дела должен детектив Эрик Рингер, и скоро его интерес к женщине перерастает профессиональный.
Рейтинг:

MPAA: R - Лицам до 17 лет обязательно присутствие взрослого
Качество: DVDRip
Формат: AVI
Видео: DivX 5, 720x528 (4:3), 1300 kbps, 29,970 fps, 0,114 bpp
Аудио №1: AC3 / 2.0 / 48 kHz / 224 kbps / 16 bit Перец
Аудио №2: AC3 / 2.0 / 48 kHz / 224 kbps / 16 bit А.Дольский
Аудио №3: MP3 / 2.0 / 48 kHz / 128 kbps / 16 bit Оригинал (Английский)

Код:

Общее
Полное имя                               : D:\download\Профиль серийного убийцы.avi
Формат                                   : AVI
Формат/Информация                        : Audio Video Interleave
Размер файла                             : 1,36 Гбайт
Продолжительность                        : 1 ч. 42 м.
Общий поток                              : 1900 Кбит/сек
Название фильма                          : Профиль серийного убийцы / Profile of a serial killer / Afraid of The Dark (1998)
Программа кодирования                    : VirtualDubMod 1.5.10.2 (build 2540/release)
Библиотека кодирования                   : VirtualDubMod build 2540/release

Видео
Идентификатор                            : 0
Формат                                   : MPEG-4 Visual
Параметр BVOP формата                    : 1
Параметр QPel формата                    : Нет
Параметр GMC формата                     : Без точки перехода
Параметр матрицы формата                 : Default (H.263)
Режим смешивания                         : Сжатый битовый поток
Идентификатор кодека                     : DX50
Идентификатор кодека/Подсказка           : DivX 5
Продолжительность                        : 1 ч. 42 м.
Битрейт                                  : 1301 Кбит/сек
Ширина                                   : 720 пикселей
Высота                                   : 528 пикселей
Соотношение сторон                       : 4:3
Частота кадров                           : 29,970 кадров/сек
Цветовое пространство                    : YUV
Субдискретизация насыщенности            : 4:2:0
Битовая глубина                          : 8 бит
Тип развёртки                            : Прогрессивная
Метод сжатия                             : С потерями
Бит/(Пиксели*Кадры)                      : 0.114
Размер потока                            : 952 Мбайт (68%)
Библиотека кодирования                   : DivX 6.2.5 (UTC 2006-07)

Аудио #1
Идентификатор                            : 1
Формат                                   : AC-3
Формат/Информация                        : Audio Coding 3
Расширение режима                        : CM (complete main)
Параметр Endianness формата              : Big
Идентификатор кодека                     : 2000
Продолжительность                        : 1 ч. 42 м.
Вид битрейта                             : Постоянный
Битрейт                                  : 224 Кбит/сек
Каналы                                   : 2 канала
Расположение каналов                     : Front: L R
Частота                                  : 48,0 КГц
Битовая глубина                          : 16 бит
Метод сжатия                             : С потерями
Размер потока                            : 164 Мбайт (12%)
Выравнивание                             : Разделение по промежуткам
Продолжительность промежутка             : 33  мс. (1,00 видеокадр)
Время предзагрузки промежутка            : 500  мс.
Заголовок                                : Профессиональный (многоголосый закадровый) Перец

Аудио #2
Идентификатор                            : 2
Формат                                   : AC-3
Формат/Информация                        : Audio Coding 3
Расширение режима                        : CM (complete main)
Параметр Endianness формата              : Big
Идентификатор кодека                     : 2000
Продолжительность                        : 1 ч. 42 м.
Вид битрейта                             : Постоянный
Битрейт                                  : 224 Кбит/сек
Каналы                                   : 2 канала
Расположение каналов                     : Front: L R
Частота                                  : 48,0 КГц
Битовая глубина                          : 16 бит
Метод сжатия                             : С потерями
Размер потока                            : 164 Мбайт (12%)
Выравнивание                             : Разделение по промежуткам
Продолжительность промежутка             : 33  мс. (1,00 видеокадр)
Время предзагрузки промежутка            : 500  мс.
Заголовок                                :Авторский (А.Дольский)

Аудио #3
Идентификатор                            : 3
Формат                                   : MPEG Audio
Версия формата                           : Version 1
Профиль формата                          : Layer 3
Режим                                    : Dual mono
Идентификатор кодека                     : 55
Идентификатор кодека/Подсказка           : MP3
Продолжительность                        : 1 ч. 42 м.
Вид битрейта                             : Постоянный
Битрейт                                  : 128 Кбит/сек
Каналы                                   : 2 канала
Частота                                  : 48,0 КГц
Битовая глубина                          : 16 бит
Метод сжатия                             : С потерями
Размер потока                            : 93,7 Мбайт (7%)
Выравнивание                             : Разделение по промежуткам
Продолжительность промежутка             : 33  мс. (1,00 видеокадр)
Время предзагрузки промежутка            : 500  мс.
Заголовок                                : Английский
Библиотека кодирования                   : LAME3.92

скриншот   скриншот  скриншот  
pb.wtf



Скачать Профиль серийного убийцы через торрент http://pic1.kartinco.top/images/10/au3rr.jpg Скачать фильм Профиль серийного убийцы через торрент бесплантно в хорошем качестве Описание: Судебный психолог Джейн Халифакс приглашается помочь в расследовании загадочного массового убийства на бензоколонке. Выжил только ... 10 10 1
Торрент: Зарегистрирован [2015-11-16 19:09] · скачан: 7 раз
Статус: √ проверено
Размер: 1.36 GB
Как cкачать? Как скачать Профиль серийного убийцы через торрент | qTorrent


>> Регистрируемся здесь <<






Отзывы и комментарии о схеме читаем и пишем здесь: ---> Отзывы и комментарии о схеме

Новые благодарочки в телеграм довольных пользователей:
скриншот   скриншот   скриншот   скриншот   скриншот
    Дорогой пользователь! Огромная просьба, поблагодарите релизера, оцените раздачу и оставьте свои комментарий, если Вы скачали Профиль серийного убийцы через торрент бесплатно! Внесите свою лепту в развитие PiratBit!
    Комментировать посты могут только пользователи прошедшие не сложную регистрацию
    Показать сообщения:    

    Профиль серийного убийцы через торрент
    Скачать бесплатно Профиль серийного убийцы
    Профиль серийного убийцы скачать торрент
    Профиль серийного убийцы смотреть онлайн
    Cкачать фильм Профиль серийного убийцы бесплатно
    Профиль серийного убийцы скачать торрент в хорошем качестве
    Профиль серийного убийцы смотреть онлайн бесплатно в хорошем качестве


    Вы не можете начинать темы
    Вы не можете отвечать на сообщения
    Вы не можете редактировать свои сообщения
    Вы не можете удалять свои сообщения
    Вы не можете голосовать в опросах
    Вы не можете прикреплять файлы к сообщениям
    Вы можете скачивать файлы