Достать ножи: Стеклянная луковица

MVO

Добыча

Дубляж

Уэнсдэй

1 сезон

Тор

Дубляж

13 клиническая

1 сезон

Жестокая ночь

MVO

Одни из нас

1 сезон

Deluxe

pack

Рекомендуем

30

Пиратка

ВАЖНО

ВАЖНО

Ghostwire

Пиратка

jed

RePack

nioh2

RePack

RDR2

RePack

NEED FOR SPEED™ PAYBACK

RePack

скачать торрент

Кинопоиск HD

Острые козырьки 6 сезон

6 сезон

FAR CRY 6

RePack

скачать торрент

Лицензия

скачать торрент

MVO

1

1 сезон

скачать торрент

1 сезон

скачать торрент

Лицензия

  

Берега (Гизо Габескирия, Григорий Лордкипанидзе) (7 серий) [1977, СССР, боевик, драма, SATRip от AVP Studio]

Берега через торрент pb.wtf

Размер: 6.63 GB | Добавлен: 7 лет 2 мес. назад | Торрент скачан:44 раза
Смотреть онлайн | Скачать | Поддержите нас   

16-11-2015 20:42 Берега Скачать торрент  

Берега
Год выпуска: 1977
Страна: СССР
Студия: Грузия-фильм
Жанр: боевик, драма
Продолжительность: 7 серий ~ по 1 ч. 10 мин.

Перевод: не требуется
Субтитры: нет
Оригинальная аудиодорожка: русский

Режиссер: Гизо Габескирия, Григорий Лордкипанидзе

В ролях:
Отар Мегвинетухуцеси, Тенгиз Арчвадзе, Юри Ярвет, Григорий Цитайшвили, Карло Саканделидзе, Акакий Васадзе, Владимир Солодников, Софико Чиаурели, Джемал Сихарулидзе, Георгий (Гоги) Харабадзе, Кетеван Кикнадзе, Григол Талаквадзе, Гурам Пирцхалава, Имеда Кахиани, Ипполит Хвичия, Руслан Микаберидзе, Малхаз Горгиладзе, Георгий Геловани, Гиви Берикашвили, Зураб Капианидзе, Гурам Сагарадзе, Давид (Додо) Абашидзе, Василий Чхаидзе, Сесилия Такаишвили, Зураб Лаперадзе, Ия Хобуа, Отар Коберидзе, Лия Элиава, Георгий Гегечкори, Иванэ (Вано) Сакварелидзе, Лео (Леван) Антадзе, Л. Амираджиби, Бичико Андроникашвили, Ефим Байковский, Малхаз Бебуришвили, Михаил Вашадзе, Гуранда Габуния, Нато Гагнидзе, Иосиф (Сосо) Гогичайшвили, Владимир Гуляев, Бухути Закариадзе, Отар Зауташвили, Лиа Капанадзе, Зинаида Кверенчхиладзе, Мамука Купарадзе, Нодар Мгалоблишвили, Заза Микашавидзе, Виктор Нинидзе, Леван Пилпани, Важа Пирцхалаишвили, Елена Сакварелидзе, Анзор Урдия, Бесарион (Бесо) Хидешели, Борис Ципурия, Варлам Цуладзе, Автандил Верулеишвили, Иза Гигошвили, Бондо Гогинава, Александр Иоселиани, Давид Окросцваридзе, Марлен Эгутия, Владимир Брегвадзе, Татули Долидзе, Георгий Сагарадзе, Тариэль Сакварелидзе, Темур (Теимураз) Цикоридзе, Василий Шавгулидзе, Флора (Феодосия) Шедания, Гигла Эбралидзе, Ираклий Кокрашвили...
Полный список актёров

Описание:
Телесериал по роману Ч. Амирэджиба «Дата Туташхиа».
Много лет человек по имени Дата Туташхиа скитался по миру. Он пытался делать добро, но убедившись, что оно не дает добрых всходов, разочаровался в людях. И тогда он начал борьбу со злом, но и его искоренить не смог. Так и жил Дата без семьи и дома, скрываясь от властей, теряя близких и друзей, в концов концов приняв смерть от собственного сына.

Исходник: DVB
Качество видео: SATRip
Формат видео: AVI

Видео: 704х528 (4:3), 25 fps, XviD ~ 1800 kbps avg, 0.194 bit/pixel
Аудио: 48 kHz, Dolby Digital AC3 2.0, 192 kbps

Раздача от:
Общее
Полное имя : Berega.1977.SATRip_[New-team]_by_AVP_Studio\05.avi
Формат : AVI
Формат/Информация : Audio Video Interleave
Размер файла : 904 Мбайт
Продолжительность : 1 ч. 3 м.
Общий поток : 2002 Кбит/сек
Программа кодирования : VirtualDubMod 1.5.10.3 | www.virtualdub-fr.org || (build 2550/release)
Библиотека кодирования : VirtualDubMod build 2550/release

Видео
Идентификатор : 0
Формат : MPEG-4 Visual
Профиль формата : Advanced [email protected]L5
Параметр BVOP формата : 1
Параметр QPel формата : Нет
Параметр GMC формата : Без точки перехода
Параметр матрицы формата : Выборочная
Идентификатор кодека : XVID
Идентификатор кодека/Подсказка : XviD
Продолжительность : 1 ч. 3 м.
Битрейт : 1800 Кбит/сек
Ширина : 704 пикселя
Высота : 528 пикселей
Соотношение сторон : 4:3
Частота кадров : 25,000 кадров/сек
Цветовое пространство : YUV
Субдискретизация насыщенности : 4:2:0
Битовая глубина : 8 бит
Тип развёртки : Прогрессивная
Метод сжатия : С потерями
Бит/(Пиксели*Кадры) : 0.194
Размер потока : 813 Мбайт (90%)
Библиотека кодирования : XviD 73

Аудио
Идентификатор : 1
Формат : AC-3
Формат/Информация : Audio Coding 3
Расширение режима : CM (complete main)
Параметр Endianness формата : Big
Идентификатор кодека : 2000
Продолжительность : 1 ч. 3 м.
Вид битрейта : Постоянный
Битрейт : 192 Кбит/сек
Каналы : 2 канала
Расположение каналов : Front: L R
Частота : 48,0 КГц
Метод сжатия : С потерями
Размер потока : 86,7 Мбайт (10%)
Выравнивание : Разделение по промежуткам
Продолжительность промежутка : 40 мс. (1,00 видеокадр)
Время предзагрузки промежутка : 500 мс



Скачать Берега через торрент http://i2-imageban-ru.translate.goog/out/2015/11/16/3c66097653d20484c3d89a4ca6f4a945.png Скачать, смотреть онлайн Берега бесплантно в хорошем качестве Описание:Телесериал по роману Ч. Амирэджиба «Дата Туташхиа».Много лет человек по имени Дата Туташхиа скитался по миру. Он пытался делать ... 10 10 2
Info! Золотая раздача, скачанное не засчитывается.
Торрент: Зарегистрирован [2015-11-16 20:42] · скачан: 44 раз
Статус: √ проверено
Размер: 6.63 GB
Как cкачать? Как скачать Берега через торрент | UTorrent

% Раздел Тема Автор DL S | L
Кино СССР [ 6.6 GB ] Берега | | SATRip-AVC от AVP Studio AVP Studio Скачать
1 | 0

28-11-2019 20:33  


Отключить вcю реклaмy на сайте, в т.ч. и в плеере онлайн просмотра!

    Дорогой пользователь! Огромная просьба, поблагодарите релизера, оцените раздачу и оставьте свои комментарий, если Вы скачали Берега через торрент бесплатно!!
    Комментировать посты могут только пользователи прошедшие не сложную регистрацию
    Показать сообщения:    


    Берега через торрент
    Скачать бесплатно Берега
    Берега скачать торрент
    Берега смотреть онлайн
    Cкачать фильм Берега бесплатно
    Берега скачать торрент в хорошем качестве
    Берега смотреть онлайн бесплатно в хорошем качестве
    Вы не можете начинать темы
    Вы не можете отвечать на сообщения
    Вы не можете редактировать свои сообщения
    Вы не можете удалять свои сообщения
    Вы не можете голосовать в опросах
    Вы не можете прикреплять файлы к сообщениям
    Вы можете скачивать файлы
    Берега [1977, СССР, боевик, драма, SATRip от AVP Studio] смотреть онлайн, скачать торрент picoco.icu