Ссылка на приватное зеркало всего за 1$. Внимание количество ограничено!!!

OK

1+1

iTunes

мы

OK

1

WEB-DLRip

Джокер

Пифагор

Ведьмак / The Witcher сериал

Лицензия

ПШазам

ОК

Оно 2

iTunes

30
pack

Вам бонус

ВАЖНО

!!Акция!!

Alien_RageХит недели

RePack

Resident Evil 21

ИГРА 18+

pack

RePack

jed

!!Акция!!

Alien_Rage

RePack

fifa19

RePack

Assassins Creed: Odyssey

RePack

NEED FOR SPEED™ PAYBACK

4 сезон

9 сезон

Бесстыжие 9 сезон

Все сериалы

все сериалы на PB.wtf

RePack

FAR CRY 5
  

Специальный репортаж - Вакцина от ИГИЛ (Андрей Сергеев) [2015 г., Документальный, техника, вооружение, SATRip, Оригинальный Русский ] pb.wtf

Специальный репортаж - Вакцина от ИГИЛ через торрент pb.wtf

Размер: 360 MB | Добавлен: 4 года 2 мес. назад | Торрент скачан:57 раз
Скачать  

17-11-2015 19:21 Специальный репортаж - Вакцина от ИГИЛ Скачать торрент  

Специальный репортаж - Вакцина от ИГИЛ




Год выпуска: 2015
Страна: Россия
Жанр: Документальный, техника, вооружение
Продолжительность: 00:25:58
Перевод: Оригинальный Русский
Субтитры: отсутствуют

Режиссер: Андрей Сергеев




Описание: Черная раковая опухоль терроризма поглощает все больше территорий на Ближнем Востоке. Там, где зародились мировые религии, христианство, ислам, сегодня ИГИЛ заливает землю человеческой кровью. Кучка бандитов, отколовшись в свое время от террористов Аль-Кайды, начали победоносное шествие по землям Сирии, Ирака и Ливии. Так называемое исламское государство - это большой суннитский проект джихабистов - интернационалистов, который создали катарцы против Саудов, люто ненавидящие соседей. За годы своего существования Исламское государство Ирака и Ливанта - Игил, потеряло свою географическую привязку, стало просто - Исламским государством. Имеет свои органы власти, вооруженные силы и даже свою систему здравохранения. Контролирует территорию порядка 90 тысяч кв. км., население захваченных земель около 9 миллионов человек. Очень сильная идеологическая составляющая, их слова, их посыл, настолько притягателен, настолько иногда правилен, что под черные знамена ИГИЛа стекаются молодые люди со всего света, которым опротивел существующий в их странах строй. С врагами Исламское государство борется просто - вывел на центральную площадь и расстрелял или отрубил голову. Чему эти люди учат детей - исключительно убивать, убивать тех, кто против тебя, против Исламского государства, как бы против ислама, если конечно то, что здесь провозглашают, вообще можно назвать религией. Поддержка США и Западом, т.н. умеренной оппозиции в Сирии, привела к полномасштабной войне и огромной волне беженцев, в Европе их уже более миллиона. Демократия может победить терроризм только морально и посмертно, вот она сейчас в Европе этим и занимается.




Качество: SATRip
Формат: AVI
Видео кодек: XviD
Аудио кодек: MP3
Видео: XviD, 704x448 (1.571), 25.000 fps, 1 800 Kbps (0.228 bit/pixel)
Аудио#1: MP3, 48.0 KHz, 2 ch, 128 Kbps, CBR
скриншот  скриншот  скриншот  

Общее
Полное имя : D:\download\Специальный репортаж. Вакцина от ИГИЛ (2015).avi
Формат : AVI
Формат/Информация : Audio Video Interleave
Размер файла : 360 Мбайт
Продолжительность : 25 м.
Общий поток : 1938 Кбит/сек
Программа кодирования : VirtualDubModRus 1.5.10.2 (build 2542/release)
Библиотека кодирования : VirtualDubMod build 2542/release

Видео
Идентификатор : 0
Формат : MPEG-4 Visual
Профиль формата : Advanced Simple@L5
Параметр BVOP формата : 2
Параметр QPel формата : Нет
Параметр GMC формата : Без точки перехода
Параметр матрицы формата : Default (H.263)
Идентификатор кодека : XVID
Идентификатор кодека/Подсказка : XviD
Продолжительность : 25 м.
Битрейт : 1800 Кбит/сек
Ширина : 704 пикселя
Высота : 448 пикселей
Соотношение сторон : 16:10
Частота кадров : 25,000 кадров/сек
Цветовое пространство : YUV
Субдискретизация насыщенности : 4:2:0
Битовая глубина : 8 бит
Тип развёртки : Прогрессивная
Метод сжатия : С потерями
Бит/(Пиксели*Кадры) : 0.228
Размер потока : 334 Мбайт (93%)
Библиотека кодирования : XviD 1.2.1 (UTC 2008-12-04)

Аудио
Идентификатор : 1
Формат : MPEG Audio
Версия формата : Version 1
Профиль формата : Layer 3
Идентификатор кодека : 55
Идентификатор кодека/Подсказка : MP3
Продолжительность : 25 м.
Вид битрейта : Постоянный
Битрейт : 128 Кбит/сек
Каналы : 2 канала
Частота : 48,0 КГц
Метод сжатия : С потерями
Размер потока : 23,8 Мбайт (7%)
Выравнивание : Соединение по промежуткам
Продолжительность промежутка : 40 мс. (1,00 видеокадр)
Время предзагрузки промежутка : 504 мс.
Библиотека кодирования : LAME3.99r
Настройки программы : -m s -V 4 -q 2 -lowpass 17 -b 128

pb.wtf



Скачать Специальный репортаж - Вакцина от ИГИЛ через торрент http://pic1.kartinco.top/images/10/qx3pj.jpg Скачать фильм Специальный репортаж - Вакцина от ИГИЛ через торрент бесплантно в хорошем качестве Описание: Черная раковая опухоль терроризма поглощает все больше территорий на Ближнем Востоке. Там, где зародились мировые религии, ... 7.7 10 9
Info! Золотая раздача, скачанное не засчитывается.
Торрент: Зарегистрирован [2015-11-17 19:21] · скачан: 57 раз
Статус: √ проверено
Размер: 360 MB
Как cкачать? Как скачать Специальный репортаж - Вакцина от ИГИЛ через торрент | qTorrent

28-11-2019 20:33  

Отключить всю рекламу на сайте

    Дорогой пользователь! Огромная просьба, поблагодарите релизера, оцените раздачу и оставьте свои комментарий, если Вы скачали Специальный репортаж - Вакцина от ИГИЛ через торрент бесплатно! Внесите свою лепту в развитие PiratBit!
    Комментировать посты могут только пользователи прошедшие не сложную регистрацию
    Показать сообщения:    

    Специальный репортаж - Вакцина от ИГИЛ через торрент
    Скачать бесплатно Специальный репортаж - Вакцина от ИГИЛ
    Специальный репортаж - Вакцина от ИГИЛ скачать торрент
    Специальный репортаж - Вакцина от ИГИЛ смотреть онлайн
    Cкачать фильм Специальный репортаж - Вакцина от ИГИЛ бесплатно
    Специальный репортаж - Вакцина от ИГИЛ скачать торрент в хорошем качестве
    Специальный репортаж - Вакцина от ИГИЛ смотреть онлайн бесплатно в хорошем качестве


    Вы не можете начинать темы
    Вы не можете отвечать на сообщения
    Вы не можете редактировать свои сообщения
    Вы не можете удалять свои сообщения
    Вы не можете голосовать в опросах
    Вы не можете прикреплять файлы к сообщениям
    Вы можете скачивать файлы