новый адрес пиратбит piratbit
Мега распродажа FORZA HORIZON 4 ULTIMATE+ВСЕ DLC+ОНЛАЙН всего за 499р. 349 руб. (супер цена). Внимание количество ограничено!!!

iTunes

1+1

iTunes

мы

iTunes

1

iTunes

Чернобыль

iTunes

Ральф против интернета

Лицензия

ПШазам

Лицензия

Игра престолов

Лицензия

30
pack

ВАЖНО

!!Акция!!

Alien_RageХит недели

RePack

Resident Evil 21

ИГРА 18+

pack

RePack

Metro:Exodus

!!Акция!!

Alien_Rage

RePack

fifa19

RePack

Assassins Creed: Odyssey

RePack

NEED FOR SPEED™ PAYBACK

3 сезон

9 сезон

Бесстыжие 9 сезон

Все сериалы

все сериалы на PB.wtf

RePack

FAR CRY 5
Ребята, катастрофически не хватает 1900р. для оплаты серверов за Октябрь (всвязи с блокировками трафик упал в 3 раза), 1-2р., выручайте.
  

ЧП – Чрезвычайное происшествие (Виктор Ивченко) [1958, СССР, боевик, драма, криминал, DVDRip от AVP Studio] pb.wtf

ЧП – Чрезвычайное происшествие через торрент pb.wtf

Размер: 1.46 GB | Добавлен: 3 года 11 мес. назад | Торрент скачан:42 раза
Скачать  

18-11-2015 08:16 ЧП – Чрезвычайное происшествие Скачать торрент  

ЧП – Чрезвычайное происшествие
Страна: СССР
Производство: К/ст им.Горького, к/ст им.Довженко

Жанр: боевик, драма, криминал
Год выпуска: 1958
Продолжительность: 02:39:45

Перевод: Не требуется
Cубтитры: нет
Оригинальная аудиодорожка: русский

Режиссер: Виктор Ивченко

В ролях:
Михаил Кузнецов, Александр Ануров, Вячеслав Тихонов, Таисия Литвиненко (II), Анатолий Соловьёв, Владимир Рудин, Павел Усовниченко, Юрий Сарычев, Павел Панёв, Гиули Чохонелидзе, Дмитрий Капка, Валентин Пархоменко, Михаил Сиренко, Витольд Янпавлис, Валерий Зиновьев (II), Вадим Кислов, Александр Толстых, Владимир Дальский, Владимир Уан-Зо-Ли, Евгений Балиев, Александр Барушной, Нонна Тен...
Полный список актёров

Описание:
В июне 1954 года в нейтральных водах близ острова Тайвань чанкайшистами был пиратски захвачен советский танкер "Туапсе". Отважные моряки мужественно проходят через все пытки азиатских тюрьм, ужасы допросов "третьей степени" и изощрённые провокации. Лишь через 13 месяцев советскому правительству удалось добиться возвращения большинства измученных неволей, но не сломленных моряков. Эти факты и стали основой фильма.
...Танкер "Полтава", следовавший с керосином в Китай, захвачен чайканшистами. При этом моторист Райский (Вячеслав Тихонов) случайно ранил одного из солдат. Танкер с экипажем был доставлен на Тайвань, где всех стали уговаривать добровольно перейти на сторону "подлинной свободы и демократии", обращаясь исключительно хорошо: поселили на роскошной вилле, поили, кормили. Когда уговоры не подействовали, в ход пустили совсем другие меры: концлагерь, лишения. Далее были героические приключения. Одни вернулись на Родину через несколько месяцев, другие только через годы, а некоторые не вернулись вовсе.
Сюжет фильма держит зрителя в напряжении от первого до последнего кадра. Редкую для себя характерную роль сыграл Вячкеслав Тихонов -
озорного и веселого парня из Одессы. Рассказ ведется от лица замполита экипажа в исполнении Михаила Кузнецова.

Источник: DVD9 R5
Качество видео: DVDRip
Формат видео: AVI

Видео: 640x480 (4:3), 25 fps, XviD ~ 1171 kbps avg, 0.152 bit/pixel
Аудио: 48 kHz, MP3 2.0, 128 kbps

Раздача от:
Общее
Полное имя : ChP–Chrezvychaynoe.proisshestvie.1958.DVDRip-1,46_[New-team]_by_AVP_Studio.avi
Формат : AVI
Формат/Информация : Audio Video Interleave
Размер файла : 1,46 Гбайт
Продолжительность : 2 ч. 39 м.
Общий поток : 1309 Кбит/сек
Программа кодирования : VirtualDubMod 1.5.10.3 | www.virtualdub-fr.org || (build 2550/release)
Библиотека кодирования : VirtualDubMod build 2550/release

Видео
Идентификатор : 0
Формат : MPEG-4 Visual
Профиль формата : Advanced Simple@L5
Параметр BVOP формата : 1
Параметр QPel формата : Нет
Параметр GMC формата : Без точки перехода
Параметр матрицы формата : Выборочная
Идентификатор кодека : XVID
Идентификатор кодека/Подсказка : XviD
Продолжительность : 2 ч. 39 м.
Битрейт : 1171 Кбит/сек
Ширина : 640 пикселей
Высота : 480 пикселей
Соотношение сторон : 4:3
Частота кадров : 25,000 кадров/сек
Цветовое пространство : YUV
Субдискретизация насыщенности : 4:2:0
Битовая глубина : 8 бит
Тип развёртки : Прогрессивная
Метод сжатия : С потерями
Бит/(Пиксели*Кадры) : 0.152
Размер потока : 1,31 Гбайт (89%)
Библиотека кодирования : XviD 73

Аудио
Идентификатор : 1
Формат : MPEG Audio
Версия формата : Version 1
Профиль формата : Layer 3
Идентификатор кодека : 55
Идентификатор кодека/Подсказка : MP3
Продолжительность : 2 ч. 39 м.
Вид битрейта : Постоянный
Битрейт : 128 Кбит/сек
Каналы : 2 канала
Частота : 48,0 КГц
Метод сжатия : С потерями
Размер потока : 146 Мбайт (10%)
Выравнивание : Соединение по промежуткам
Продолжительность промежутка : 40 мс. (1,00 видеокадр)
Время предзагрузки промежутка : 504 мс.
Библиотека кодирования : LAME3.99r
Настройки программы : -m s -V 4 -q 2 -lowpass 17 -b 128
pb.wtf



Скачать ЧП – Чрезвычайное происшествие через торрент http://s017.radikal.ru/i418/1511/59/54014971e087.png Скачать фильм ЧП – Чрезвычайное происшествие через торрент бесплантно в хорошем качестве Описание:В июне 1954 года в нейтральных водах близ острова Тайвань чанкайшистами был пиратски захвачен советский танкер "Туапсе". Отважные ... 5 10 1
Торрент: Зарегистрирован [2015-11-18 08:16] · скачан: 42 раз
Статус: √ проверено
Размер: 1.46 GB
Как cкачать? Как скачать ЧП – Чрезвычайное происшествие через торрент | qTorrent

% Раздел Тема Автор DL S | L
Кино СССР [ 2.18 GB ] ЧП – Чрезвычайное происшествие [1958 СССР DVDRip-AVC от AVP Studio] AVP Studio Скачать
1 | 0
Кино СССР [ 2.18 GB ] ЧП – Чрезвычайное происшествие [1958 СССР DVDRip от AVP Studio] AVP Studio Скачать
1 | 0


>> Регистрируемся здесь <<






Отзывы и комментарии о схеме читаем и пишем здесь: ---> Отзывы и комментарии о схеме

Новые благодарочки в телеграм довольных пользователей:
скриншот   скриншот   скриншот   скриншот   скриншот
    Дорогой пользователь! Огромная просьба, поблагодарите релизера, оцените раздачу и оставьте свои комментарий, если Вы скачали ЧП – Чрезвычайное происшествие через торрент бесплатно! Внесите свою лепту в развитие PiratBit!
    Комментировать посты могут только пользователи прошедшие не сложную регистрацию
    Показать сообщения:    

    ЧП – Чрезвычайное происшествие через торрент
    Скачать бесплатно ЧП – Чрезвычайное происшествие
    ЧП – Чрезвычайное происшествие скачать торрент
    ЧП – Чрезвычайное происшествие смотреть онлайн
    Cкачать фильм ЧП – Чрезвычайное происшествие бесплатно
    ЧП – Чрезвычайное происшествие скачать торрент в хорошем качестве
    ЧП – Чрезвычайное происшествие смотреть онлайн бесплатно в хорошем качестве


    Вы не можете начинать темы
    Вы не можете отвечать на сообщения
    Вы не можете редактировать свои сообщения
    Вы не можете удалять свои сообщения
    Вы не можете голосовать в опросах
    Вы не можете прикреплять файлы к сообщениям
    Вы можете скачивать файлы