новый адрес пиратбит piratbit
Мега распродажа FORZA HORIZON 4 ULTIMATE+ВСЕ DLC+ОНЛАЙН всего за 499р. 349 руб. (супер цена). Внимание количество ограничено!!!

iTunes

1+1

iTunes

мы

iTunes

1

iTunes

Чернобыль

iTunes

Ральф против интернета

Лицензия

ПШазам

Лицензия

Игра престолов

Лицензия

30
pack

ВАЖНО

!!Акция!!

Alien_RageХит недели

RePack

Resident Evil 21

ИГРА 18+

pack

RePack

Metro:Exodus

!!Акция!!

Alien_Rage

RePack

fifa19

RePack

Assassins Creed: Odyssey

RePack

NEED FOR SPEED™ PAYBACK

3 сезон

9 сезон

Бесстыжие 9 сезон

Все сериалы

все сериалы на PB.wtf

RePack

FAR CRY 5
Ребята, катастрофически не хватает 1900р. для оплаты серверов за Октябрь (всвязи с блокировками трафик упал в 3 раза), 1-2р., выручайте.
  

Капитан Немо (Василий Левин) [1975, СССР, фантастика, боевик, приключения, DVDRip от AVP Studio] pb.wtf

Капитан Немо через торрент pb.wtf

Размер: 2.18 GB | Добавлен: 3 года 11 мес. назад | Торрент скачан:60 раз
Скачать  

18-11-2015 08:29 Капитан Немо Скачать торрент  

Капитан Немо
Год выпуска: 1975
Страна: СССР
Студия: Одесская киностудия
Жанр: фантастика, боевик, приключения
Продолжительность: 3 серии ~ по 1 ч. 10 мин.

Перевод: не требуется
Субтитры: нет
Оригинальная аудиодорожка: русский

Режиссер: Василий Левин

В ролях:
Владислав Дворжецкий, Юрий Родионов, Михаил Кононов, Владимир Талашко, Марианна Вертинская, Владимир Басов, Виктор Демерташ, Геннадий Нилов, Александр Пороховщиков, Гиви Тохадзе, Земфира Цахилова, Николай Дупак, Юрий Меншагин...
Полный список актёров

Описание:
Телесериал снят по мотивам романов Жюля Верна "20000 лье под водой" и "Паровой дом".
Морское чудовище уничтожает военные корабли, и знаменитый профессор Аронакс отправляется в карательную экспедицию. После неудачного сражения с чудовищем корабль идет ко дну, а профессор, его слуга Консель и китобой Нед Лэнд попадают на подводный корабль и совершают удивительное путешествие под водой.
Первая серия называется "Железный кит", вторая - "Принц Даккар", третья - "Наутилус" продолжает борьбу".

Исходник: DVD5 R5 + DVD9 R5
Качество видео: DVDRip
Формат видео: AVI

Видео: 688х512 (4:3), 25 fps, XviD ~ 1384 kbps avg, 0.157 bit/pixel
Аудио: 48 kHz, MP3 2.0, 128 kbps

Раздача от:
1-я серия: «Железный кит»
2-я серия: «Принц Даккар»
3-я серия: «Наутилус продолжает борьбу»
Общее
Полное имя : D:\Tracker\Сериалы\Капитан Немо\Kapitan.Nemo.1975.DVDRip-2.18_[New-team]_by_AVP_Studio\02.avi
Формат : AVI
Формат/Информация : Audio Video Interleave
Размер файла : 732 Мбайт
Продолжительность : 1 ч. 7 м.
Общий поток : 1522 Кбит/сек
Программа кодирования : VirtualDubMod 1.5.10.3 | www.virtualdub-fr.org || (build 2550/release)
Библиотека кодирования : VirtualDubMod build 2550/release

Видео
Идентификатор : 0
Формат : MPEG-4 Visual
Профиль формата : Advanced Simple@L5
Параметр BVOP формата : 1
Параметр QPel формата : Нет
Параметр GMC формата : Без точки перехода
Параметр матрицы формата : Выборочная
Идентификатор кодека : XVID
Идентификатор кодека/Подсказка : XviD
Продолжительность : 1 ч. 7 м.
Битрейт : 1384 Кбит/сек
Ширина : 688 пикселей
Высота : 512 пикселей
Соотношение сторон : 4:3
Частота кадров : 25,000 кадров/сек
Цветовое пространство : YUV
Субдискретизация насыщенности : 4:2:0
Битовая глубина : 8 бит
Тип развёртки : Прогрессивная
Метод сжатия : С потерями
Бит/(Пиксели*Кадры) : 0.157
Размер потока : 665 Мбайт (91%)
Библиотека кодирования : XviD 73

Аудио
Идентификатор : 1
Формат : MPEG Audio
Версия формата : Version 1
Профиль формата : Layer 3
Идентификатор кодека : 55
Идентификатор кодека/Подсказка : MP3
Продолжительность : 1 ч. 7 м.
Вид битрейта : Постоянный
Битрейт : 128 Кбит/сек
Каналы : 2 канала
Частота : 48,0 КГц
Метод сжатия : С потерями
Размер потока : 61,5 Мбайт (8%)
Выравнивание : Соединение по промежуткам
Продолжительность промежутка : 40 мс. (1,00 видеокадр)
Время предзагрузки промежутка : 504 мс.
Библиотека кодирования : LAME3.99r
Настройки программы : -m s -V 4 -q 2 -lowpass 17 -b 128
pb.wtf



Скачать Капитан Немо через торрент http://s019.radikal.ru/i644/1511/3e/1cc3b3f65b7b.png Скачать фильм Капитан Немо через торрент бесплантно в хорошем качестве Описание:Телесериал снят по мотивам романов Жюля Верна "20000 лье под водой" и "Паровой дом".Морское чудовище уничтожает военные корабли, и ... 10 10 1
Торрент: Зарегистрирован [2015-11-18 08:29] · скачан: 60 раз
Статус: √ проверено
Размер: 2.18 GB
Как cкачать? Как скачать Капитан Немо через торрент | qTorrent

% Раздел Тема Автор DL S | L
Кино СССР [ 12.33 GB ] Капитан Немо [1975 WEBRip 720p от KORSAR] filbi1976 Скачать
1 | 1
Кино СССР [ 2.91 GB ] Капитан Немо [1975 СССР DVDRip-AVC от AVP Studio] AVP Studio Скачать
1 | 0
Кино СССР [ 3.28 GB ] Капитан Немо [1975 СССР DVDRip от AVP Studio] AVP Studio Скачать
1 | 0
Эротические игры [ 44 MB ] Nemo's Whores / Шлюшки Капитана Немо [лицензияRUSexydoll] 222r666 Скачать
1 | 0
Наши сериалы [ 4.3 GB ] Сердце капитана Немова / Серии: 1-8 из 8 [2009 DVDRip ] markfiter Скачать
1 | 0
Наши сериалы [ 4.3 GB ] Сердце капитана Немова [2009 DVDRip] -=Cherry=- Скачать
1 | 0


>> Регистрируемся здесь <<






Отзывы и комментарии о схеме читаем и пишем здесь: ---> Отзывы и комментарии о схеме

Новые благодарочки в телеграм довольных пользователей:
скриншот   скриншот   скриншот   скриншот   скриншот
    Дорогой пользователь! Огромная просьба, поблагодарите релизера, оцените раздачу и оставьте свои комментарий, если Вы скачали Капитан Немо через торрент бесплатно! Внесите свою лепту в развитие PiratBit!
    Комментировать посты могут только пользователи прошедшие не сложную регистрацию
    Показать сообщения:    

    Капитан Немо через торрент
    Скачать бесплатно Капитан Немо
    Капитан Немо скачать торрент
    Капитан Немо смотреть онлайн
    Cкачать фильм Капитан Немо бесплатно
    Капитан Немо скачать торрент в хорошем качестве
    Капитан Немо смотреть онлайн бесплатно в хорошем качестве


    Вы не можете начинать темы
    Вы не можете отвечать на сообщения
    Вы не можете редактировать свои сообщения
    Вы не можете удалять свои сообщения
    Вы не можете голосовать в опросах
    Вы не можете прикреплять файлы к сообщениям
    Вы можете скачивать файлы