Ссылка на приватное зеркало всего за 1$. Внимание количество ограничено!!!

iTunes

iTunes

iTunes

1

iTunes

iTunes

iTunes

iTunes

iTunes

30
pack

$ от Little Big

ВАЖНО

!!Акция!!

Alien_RageХит недели

RePack

Resident Evil 21

ИГРА 18+

pack

RePack

jed

!!Акция!!

Alien_Rage

RePack

fifa19

RePack

Assassins Creed: Odyssey

RePack

NEED FOR SPEED™ PAYBACK

4 сезон

9 сезон

Бесстыжие 9 сезон

Все сериалы

все сериалы на PB.wtf

RePack

FAR CRY 5
  

Другой мир / Another World (Эйтан Реувин) [2015, ужасы, фантастика, боевик, WEB-DL 720p, DVO (Ох! Студия) и Ворон] pb.wtf

Другой мир через торрент pb.wtf

Размер: 3.15 GB | Добавлен: 4 года 7 мес. назад | Торрент скачан:451 раз
Скачать  

18-11-2015 13:28 Другой мир Скачать торрент  


Другой мир / Another World


ИНФОРМАЦИЯ:
Год выпуска:2015
Страна: Израиль
Жанр: ужасы, фантастика, боевик
Продолжительность: 01:39:53
Перевод: DVO (Ох! Студия) и Ворон]
Режиссер: Эйтан Реувин

В Ролях:
Larry Buchins (рассказчик), Зэк Коэн (Wizard), Сюзанна Гшвендтнер (Doctor), Davina Kevelson (Daughter), David Lavenski (Mouser), Карл МакКристал (Colonel)

Описание:
В пост-апокалиптическом будущем, во время создания биологического оружия, что-то пошло не так, и четырем выжившим приходится защищать себя от «зараженных» - бессмысленных убийц. Они борются, чтобы выжить и понять, что же на самом деле произошло.

  • Мировая премьера:10 октября 2015

    ТЕХ.ДАННЫЕ:
    Качество: WEB-DL 720p
    Формат: MKV
    Видео: AVC, 1280x690 (1.855), 3844 kbps, 24 fps, 0,181 bpp
    Аудио №1: русский / AC3 / 2.0 / 48 kHz / 192 kbps / 16 bit ||
    Аудио №2: английский / AC3 / 5.1 / 48 kHz / 384 kbps / 16 bit
    Навигация по главам: есть


    General
    Unique ID : 222211348010398252887993193958805522764 (0xA72C595245133BFB99759F4332A6C94C)
    Complete name : D:\Торенты\Another World.2015.720p.WEB-DL.x264.mkv
    Format : Matroska
    Format version : Version 4 / Version 2
    File size : 3.15 GiB
    Duration : 1h 39mn
    Overall bit rate : 4 510 Kbps
    Encoded date : UTC 2015-11-16 16:07:32
    Writing application : mkvmerge v6.9.1 ('Blue Panther') 64bit built on Apr 18 2014 18:23:38
    Writing library : libebml v1.3.0 + libmatroska v1.4.1

    Video
    ID : 1
    Format : AVC
    Format/Info : Advanced Video Codec
    Format profile : High@L3.1
    Format settings, CABAC : No
    Format settings, ReFrames : 2 frames
    Codec ID : V_MPEG4/ISO/AVC
    Duration : 1h 39mn
    Bit rate : 3 844 Kbps
    Width : 1 280 pixels
    Height : 690 pixels
    Display aspect ratio : 1.855
    Frame rate : 24.000 fps
    Color space : YUV
    Chroma subsampling : 4:2:0
    Bit depth : 8 bits
    Scan type : Progressive
    Bits/(Pixel*Frame) : 0.181
    Stream size : 2.68 GiB (85%)
    Language : English
    Default : Yes
    Forced : No
    Color primaries : BT.709-5, BT.1361, IEC 61966-2-4, SMPTE RP177
    Transfer characteristics : BT.709-5, BT.1361
    Matrix coefficients : BT.709-5, BT.1361, IEC 61966-2-4 709, SMPTE RP177

    Audio #1
    ID : 2
    Format : AC-3
    Format/Info : Audio Coding 3
    Mode extension : CM (complete main)
    Codec ID : A_AC3
    Duration : 1h 39mn
    Bit rate mode : Constant
    Bit rate : 192 Kbps
    Channel(s) : 2 channels
    Channel positions : Front: L R
    Sampling rate : 48.0 KHz
    Bit depth : 16 bits
    Compression mode : Lossy
    Stream size : 137 MiB (4%)
    Title : AVO_Ворон
    Language : Russian
    Default : Yes
    Forced : No

    Audio #2
    ID : 3
    Format : AC-3
    Format/Info : Audio Coding 3
    Mode extension : CM (complete main)
    Codec ID : A_AC3
    Duration : 1h 39mn
    Bit rate mode : Constant
    Bit rate : 384 Kbps
    Channel(s) : 6 channels
    Channel positions : Front: L C R, Side: L R, LFE
    Sampling rate : 48.0 KHz
    Bit depth : 16 bits
    Compression mode : Lossy
    Stream size : 274 MiB (9%)
    Title : original
    Language : English
    Default : No
    Forced : No

    Menu
    00:00:00.000 : en:Chapter 1
    00:33:11.000 : en:Chapter 2
    01:04:57.000 : en:Chapter 3
    01:36:16.000 : en:Chapter 4
    Скриншоты:

    © Оформление by .::Ворон::.
    pb.wtf



  • Скачать Другой мир через торрент http://pic.kartinco.top/images/6/ordi9.jpg Скачать фильм Другой мир через торрент бесплантно в хорошем качестве Описание: В пост-апокалиптическом будущем, во время создания биологического оружия, что-то пошло не так, и четырем выжившим приходится ... 8.9 10 13
    Info! Золотая раздача, скачанное не засчитывается.
    Торрент: Зарегистрирован [2015-11-18 13:28] · скачан: 451 раз
    Статус: T временная
    Размер: 3.15 GB
    Как cкачать? Как скачать Другой мир через торрент | qTorrent

    % Раздел Тема Автор DL S | L
    T Фильмы 2015 (Звук TS, Cam, VO, DVO) [ 1.46 GB ] Другой мир / Another World [2015 WEB-DLRip] DVO и Ворон] Ворон Скачать
    1 | 0

    28-11-2019 20:33  

    Отключить всю рекламу на сайте

    18-11-2015 14:02 Другой мир Скачать торрент  

    другой-но не такой-оценки высокие-поэтому надо брать-спасибо раздающемуpb.wtf



    18-11-2015 19:07 Другой мир Скачать торрент  

    Цитата:

    (Mouser)

    это маузер что ли? или на французком? Тогда вопрос, зачем?pb.wtf



      Дорогой пользователь! Огромная просьба, поблагодарите релизера, оцените раздачу и оставьте свои комментарий, если Вы скачали Другой мир через торрент бесплатно! Внесите свою лепту в развитие PiratBit!
      Комментировать посты могут только пользователи прошедшие не сложную регистрацию
      Показать сообщения:    

      Другой мир через торрент
      Скачать бесплатно Другой мир
      Другой мир скачать торрент
      Другой мир смотреть онлайн
      Cкачать фильм Другой мир бесплатно
      Другой мир скачать торрент в хорошем качестве
      Другой мир смотреть онлайн бесплатно в хорошем качестве


      Вы не можете начинать темы
      Вы не можете отвечать на сообщения
      Вы не можете редактировать свои сообщения
      Вы не можете удалять свои сообщения
      Вы не можете голосовать в опросах
      Вы не можете прикреплять файлы к сообщениям
      Вы можете скачивать файлы