Ссылка на приватное зеркало всего за 1$. Внимание количество ограничено!!!

OK

1+1

iTunes

мы

OK

1

WEB-DLRip

Джокер

Пифагор

Ведьмак / The Witcher сериал

iTunes

ПШазам

ОК

Оно 2

iTunes

30
pack

Вам бонус

ВАЖНО

!!Акция!!

Alien_RageХит недели

RePack

Resident Evil 21

ИГРА 18+

pack

RePack

jed

RePack

fifa19

RePack

Assassins Creed: Odyssey

RePack

NEED FOR SPEED™ PAYBACK

4 сезон

9 сезон

Бесстыжие 9 сезон

Все сериалы

все сериалы на PB.wtf

RePack

FAR CRY 5
  

Беглец / The Runner (Остин Старк / Austin Stark) [2015, драма, BDRip-AVC от potroks] Dub [iTunes] pb.wtf

Беглец через торрент pb.wtf

Размер: 2.14 GB | Добавлен: 4 года 2 мес. назад | Торрент скачан:366 раз
Скачать  

18-11-2015 17:35 Беглец Скачать торрент  

Беглец / The Runner
«Ложь по-американски»
Год выпуска: 2015
Страна: США / Paper Street Films, Back Lot Pictures, KGB Media
Жанр: драма
Продолжительность: 01:30:08
Перевод: Дубляж [iTunes]
Субтитры: английские (Full), английские (SDH)
Навигация по главам: есть
Режиссер: Остин Старк / Austin Stark
В ролях:

Николас Кейдж (Colin Pryce), Сара Полсон (Kate Haber), Конни Нильсен (Deborah Price), Уенделл Пирс (Frank Legrand), Брайан Бэтт (Mark Lavin), Питер Фонда (Rayne Price), Фредрик Лене (Senator Owens), Керри Кехилл (Lt. Wyman), Ванета Уолмсли (Layla), Джудд Лорманд, Цейра Пайтон (Lucy Hall), Кристофер Берри (Hal Provich)
Описание: Конгрессмен Колин Прайс безумно увлечен двумя вещами: политикой и женщинами. После аварии на нефтяной платформе его жизнь полностью меняется. Камеры наблюдения ловят его с темнокожей Люси, женой одного из пострадавших в аварии. Разразившийся сексуальный скандал ставит под угрозу не только карьеру Прайса, но и всю его жизнь. Ложь - лучший политический союзник, но что делать, когда дело касается любви?...

Качество: BDRip-AVC
Формат: MKV
Видео кодек: AVC
Аудио кодек: AC3
Видео: AVC, 1120x468 (2.40:1), 2566 kbps, 23,976 fps, 0.204 bit/pixel
Аудио#1: AC3 / 5.1 / 48 kHz / 384 kbps / 16 bit | RUS
Аудио#2: AC3 / 5.1 / 48 kHz / 448 kbps / 16 bit | ENG

Релиз группы:
Автор рипа: potroks

Код:

General
Unique ID                   : 231177922961622514781103698587444256089 (0xADEB3F9931A38DB29D2157B41BA71D59)
Complete name               : Begletc.2015.DUAL.BDRip.x264.-HELLYWOOD.mkv
Format                      : Matroska
Format version              : Version 4 / Version 2
File size                   : 2.18 GiB
Duration                    : 1h 30mn
Overall bit rate            : 3 463 Kbps
Movie name                  : The Runner (2015) - HELLYWOOD
Encoded date                : UTC 2015-09-01 17:02:32
Writing application         : mkvmerge v5.9.0 ('On The Loose') built on Dec 15 2012 16:39:58
Writing library             : libebml v1.3.0 + libmatroska v1.4.0

Video
ID                          : 1
Format                      : AVC
Format/Info                 : Advanced Video Codec
Format profile              : High@L4.1
Format settings, CABAC      : Yes
Format settings, ReFrames   : 10 frames
Codec ID                    : V_MPEG4/ISO/AVC
Duration                    : 1h 30mn
Bit rate                    : 2 566 Kbps
Width                       : 1 120 pixels
Height                      : 468 pixels
Display aspect ratio        : 2.40:1
Frame rate mode             : Constant
Frame rate                  : 23.976 fps
Color space                 : YUV
Chroma subsampling          : 4:2:0
Bit depth                   : 8 bits
Scan type                   : Progressive
Bits/(Pixel*Frame)          : 0.204
Stream size                 : 1.57 GiB (72%)
Title                       : potroks
Writing library             : x264 core 148 r2597M e86f3a1
Encoding settings           : cabac=1 / ref=10 / deblock=1:-3:-3 / analyse=0x3:0x133 / me=umh / subme=11 / psy=1 / psy_rd=0.90:0.00 / mixed_ref=1 / me_range=56 / chroma_me=1 / trellis=2 / 8x8dct=1 / cqm=0 / deadzone=21,11 / fast_pskip=0 / chroma_qp_offset=-2 / threads=10 / lookahead_threads=2 / sliced_threads=0 / nr=0 / decimate=1 / interlaced=0 / bluray_compat=0 / constrained_intra=0 / bframes=11 / b_pyramid=2 / b_adapt=2 / b_bias=0 / direct=3 / weightb=1 / open_gop=0 / weightp=2 / keyint=250 / keyint_min=23 / scenecut=40 / intra_refresh=0 / rc=2pass / mbtree=0 / bitrate=2566 / ratetol=1.0 / qcomp=0.70 / qpmin=0 / qpmax=69 / qpstep=4 / cplxblur=20.0 / qblur=0.5 / ip_ratio=1.40 / pb_ratio=1.30 / aq=1:0.90
Language                    : English
Default                     : Yes
Forced                      : No
Color range                 : Limited
Color primaries             : BT.709
Transfer characteristics    : BT.709
Matrix coefficients         : BT.709

Audio #1
ID                          : 2
Format                      : AC-3
Format/Info                 : Audio Coding 3
Mode extension              : CM (complete main)
Format settings, Endianness : Big
Codec ID                    : A_AC3
Duration                    : 1h 30mn
Bit rate mode               : Constant
Bit rate                    : 448 Kbps
Channel(s)                  : 6 channels
Channel positions           : Front: L C R, Side: L R, LFE
Sampling rate               : 48.0 KHz
Compression mode            : Lossy
Delay relative to video     : 27ms
Stream size                 : 289 MiB (13%)
Title                       : MVO | DD 5.1 @ 448 kbps - Paradox & OMSKBIRD records
Language                    : Russian
Default                     : Yes
Forced                      : No

Audio #2
ID                          : 3
Format                      : AC-3
Format/Info                 : Audio Coding 3
Mode extension              : CM (complete main)
Format settings, Endianness : Big
Codec ID                    : A_AC3
Duration                    : 1h 30mn
Bit rate mode               : Constant
Bit rate                    : 448 Kbps
Channel(s)                  : 6 channels
Channel positions           : Front: L C R, Side: L R, LFE
Sampling rate               : 48.0 KHz
Compression mode            : Lossy
Delay relative to video     : 27ms
Stream size                 : 289 MiB (13%)
Title                       : Original | DD 5.1 @ 448 kbps
Language                    : English
Default                     : No
Forced                      : No

Text #1
ID                          : 4
Format                      : UTF-8
Codec ID                    : S_TEXT/UTF8
Codec ID/Info               : UTF-8 Plain Text
Title                       : Full
Language                    : English
Default                     : No
Forced                      : No

Text #2
ID                          : 5
Format                      : UTF-8
Codec ID                    : S_TEXT/UTF8
Codec ID/Info               : UTF-8 Plain Text
Title                       : SDH
Language                    : English
Default                     : No
Forced                      : No

Menu
00:00:00.000                : en:Chapter 01
00:07:41.377                : en:Chapter 02
00:14:38.836                : en:Chapter 03
00:24:10.073                : en:Chapter 04
00:30:49.389                : en:Chapter 05
00:38:06.575                : en:Chapter 06
00:46:31.330                : en:Chapter 07
00:52:00.826                : en:Chapter 08
00:58:41.559                : en:Chapter 09
01:09:23.701                : en:Chapter 10
01:15:25.604                : en:Chapter 11
01:23:02.394                : en:Chapter 12


pb.wtf



Скачать Беглец через торрент http://i69.fastpic.ru/big/2015/1013/04/204b4ef87b4e63bcd5ac32bec00b1604.png Скачать фильм Беглец через торрент бесплантно в хорошем качестве Описание: Конгрессмен Колин Прайс безумно увлечен двумя вещами: политикой и женщинами. После аварии на нефтяной платформе его жизнь ... 7.7 10 11
Info! Золотая раздача, скачанное не засчитывается.
Торрент: Зарегистрирован [2015-11-18 17:53] · скачан: 366 раз
Статус: √ проверено
Размер: 2.14 GB
Как cкачать? Как скачать Беглец через торрент | qTorrent

% Раздел Тема Автор DL S | L
Фильмы до 2000 г. [ 1.45 GB ] Индеец-беглец / The Indian Runner [1991 HDRip] DVO koenig Скачать
1 | 0
Фильмы 2015 [DVDrip, WEB-DLRip, HDrip] [ 1.42 GB ] Беглец / The Runner [2015 BDRip-AVC] Dub potroks Скачать
1 | 0
Фильмы с украинским озвучиванием [ 1.73 GB ] Беглец / The Runner [2015 BDRip] [Ukr DUB] + [Eng] + [Sub] killermax2013 Скачать
1 | 0

28-11-2019 20:33  

Отключить всю рекламу на сайте

19-11-2015 09:13 Беглец Скачать торрент  

Как фильм, смотреть можно?pb.wtf



19-11-2015 09:21 Беглец Скачать торрент  

для меня кейдж умер лет 10 назадpb.wtf



19-11-2015 10:13 Беглец Скачать торрент  

спасибо за Кейджа pb.wtf



19-11-2015 12:37 Беглец Скачать торрент  

dixit писал(а):

для меня кейдж умер лет 10 назад

воскрестнет в сокровищах нации 3 ....pb.wtf



    Дорогой пользователь! Огромная просьба, поблагодарите релизера, оцените раздачу и оставьте свои комментарий, если Вы скачали Беглец через торрент бесплатно! Внесите свою лепту в развитие PiratBit!
    Комментировать посты могут только пользователи прошедшие не сложную регистрацию
    Показать сообщения:    

    Беглец через торрент
    Скачать бесплатно Беглец
    Беглец скачать торрент
    Беглец смотреть онлайн
    Cкачать фильм Беглец бесплатно
    Беглец скачать торрент в хорошем качестве
    Беглец смотреть онлайн бесплатно в хорошем качестве


    Вы не можете начинать темы
    Вы не можете отвечать на сообщения
    Вы не можете редактировать свои сообщения
    Вы не можете удалять свои сообщения
    Вы не можете голосовать в опросах
    Вы не можете прикреплять файлы к сообщениям
    Вы можете скачивать файлы