Ссылка на приватное зеркало всего за 1$. Внимание количество ограничено!!!

OK

1+1

iTunes

мы

OK

1

WEB-DLRip

Джокер

Пифагор

Ведьмак / The Witcher сериал

Лицензия

ПШазам

ОК

Оно 2

iTunes

30
pack

Вам бонус

ВАЖНО

!!Акция!!

Alien_RageХит недели

RePack

Resident Evil 21

ИГРА 18+

pack

RePack

jed

!!Акция!!

Alien_Rage

RePack

fifa19

RePack

Assassins Creed: Odyssey

RePack

NEED FOR SPEED™ PAYBACK

4 сезон

9 сезон

Бесстыжие 9 сезон

Все сериалы

все сериалы на PB.wtf

RePack

FAR CRY 5
  

Специальный корреспондент - Теракт над Синаем. Возмездие неизбежно [2015 г., документальный, SATRip, Оригинальный] pb.wtf

Специальный корреспондент - Теракт над Синаем. Возмездие неизбежно через торрент pb.wtf

Размер: 1.78 GB | Добавлен: 4 года 2 мес. назад | Торрент скачан:18 раз
Скачать  

18-11-2015 19:44 Специальный корреспондент - Теракт над Синаем. Возмездие неизбежно Скачать торрент  

Специальный корреспондент - Теракт над Синаем. Возмездие неизбежно
Год выпуска: 2015
Страна: Россия
Жанр: документальный
Продолжительность: 02:12:13
Перевод: Оригинальный

Описание: "Специальный корреспондент" - это популярная публицистическая программа, которая выходит на телеканале "Россия" с сентября 2002 года. Каждую неделю один из ведущих рассказывает в своем фильме-репортаже о какой-либо актуальной проблеме, существующей в современном обществе, посвящает зрительскую аудиторию в подробности наиболее значимых для страны и мира событий.
Вниманию телезрителей предлагаются фильмы производства студий Аркадия Мамонтова, Бориса Соболева Александра Рогаткина и Александра Бузаладзе.
Программа сохранит традиции, заложенные Аркадием Мамонтовым, - самые острые расследования лучших корреспондентов канала "Россия" - и при этом даст возможность экспертам, зрителям и автору материала обсудить ключевые и спорные моменты фильма.
Кроме "ядра" авторов, снимать фильмы для "Специального корреспондента" будут и другие корреспонденты телеканала "Россия".

Доп. информация: Взрывы и бой под Парижем, экстренная посадка лайнера в США и Канаде, бомба в машине у стадиона в Ганновере, спецоперация в Брюсселе, усиленные меры безопасности в России. Война с терроризмом идет по всему миру.

Качество: SATRip
Формат: AVI
Видео кодек: XviD
Аудио кодек: MP3
Видео: 720x464 (1.55:1), 25 fps, XviD build 50 ~1790 kbps avg, 0.21 bit/pixel
Аудио#1: 48 kHz, MPEG Layer 3, 2 ch, ~128.00 kbps avg
скриншот   скриншот   скриншот   скриншот  

General
Complete name : C:\Users\tut\Desktop\закаченое\Spec.Korr(18.11.2015).satrip.avi
Format : AVI
Format/Info : Audio Video Interleave
File size : 1.78 GiB
Duration : 2h 12mn
Overall bit rate : 1 928 Kbps
Writing application : VirtualDubMod 1.5.10.3 | www.virtualdub-fr.org || (build 2550/release)
Writing library : VirtualDubMod build 2550/release

Video
ID : 0
Format : MPEG-4 Visual
Format profile : Advanced Simple@L5
Format settings, BVOP : 1
Format settings, QPel : No
Format settings, GMC : No warppoints
Format settings, Matrix : Default (MPEG)
Codec ID : XVID
Codec ID/Hint : XviD
Duration : 2h 12mn
Bit rate : 1 790 Kbps
Width : 720 pixels
Height : 464 pixels
Display aspect ratio : 16:10
Frame rate : 25.000 fps
Color space : YUV
Chroma subsampling : 4:2:0
Bit depth : 8 bits
Scan type : Progressive
Compression mode : Lossy
Bits/(Pixel*Frame) : 0.214
Stream size : 1.65 GiB (93%)
Writing library : XviD 1.2.1 (UTC 2008-12-04)

Audio
ID : 1
Format : MPEG Audio
Format version : Version 1
Format profile : Layer 3
Codec ID : 55
Codec ID/Hint : MP3
Duration : 2h 12mn
Bit rate mode : Constant
Bit rate : 128 Kbps
Channel(s) : 2 channels
Sampling rate : 48.0 KHz
Compression mode : Lossy
Stream size : 121 MiB (7%)
Alignment : Aligned on interleaves
Interleave, duration : 40 ms (1.00 video frame)
Interleave, preload duratio : 504 ms
Writing library : LAME3.99r
Encoding settings : -m s -V 4 -q 2 -lowpass 17 -b 128

pb.wtf



Скачать Специальный корреспондент - Теракт над Синаем. Возмездие неизбежно через торрент http://pic.kartinco.top/images/11/x5eit.jpg Скачать фильм Специальный корреспондент - Теракт над Синаем. Возмездие неизбежно [2015 г., документальный, SATRip, Оригинальный]через торрент бесплантно в хорошем качестве Описание: "Специальный корреспондент" - это популярная публицистическая программа, которая выходит на телеканале "Россия" с сентября 2002 ... 6.4 10 5
Торрент: Зарегистрирован [2015-11-18 19:44] · скачан: 18 раз
Статус: √ проверено
Размер: 1.78 GB
Как cкачать? Как скачать Специальный корреспондент - Теракт над Синаем. Возмездие неизбежно через торрент | qTorrent

28-11-2019 20:33  

Отключить всю рекламу на сайте


18-11-2015 19:46 Специальный корреспондент - Теракт над Синаем. Возмездие неизбежно Скачать торрент  

Мой 1ый релиз, не суди строго :sarcastic_blum:pb.wtf
KDestroyer писал(а):

Доп. информация - под спойлер



    Дорогой пользователь! Огромная просьба, поблагодарите релизера, оцените раздачу и оставьте свои комментарий, если Вы скачали Специальный корреспондент - Теракт над Синаем. Возмездие неизбежно через торрент бесплатно! Внесите свою лепту в развитие PiratBit!
    Комментировать посты могут только пользователи прошедшие не сложную регистрацию
    Показать сообщения:    

    Специальный корреспондент - Теракт над Синаем. Возмездие неизбежно через торрент
    Скачать бесплатно Специальный корреспондент - Теракт над Синаем. Возмездие неизбежно
    Специальный корреспондент - Теракт над Синаем. Возмездие неизбежно скачать торрент
    Специальный корреспондент - Теракт над Синаем. Возмездие неизбежно смотреть онлайн
    Cкачать фильм Специальный корреспондент - Теракт над Синаем. Возмездие неизбежно бесплатно
    Специальный корреспондент - Теракт над Синаем. Возмездие неизбежно скачать торрент в хорошем качестве
    Специальный корреспондент - Теракт над Синаем. Возмездие неизбежно смотреть онлайн бесплатно в хорошем качестве


    Вы не можете начинать темы
    Вы не можете отвечать на сообщения
    Вы не можете редактировать свои сообщения
    Вы не можете удалять свои сообщения
    Вы не можете голосовать в опросах
    Вы не можете прикреплять файлы к сообщениям
    Вы можете скачивать файлы