Ссылка на приватное зеркало всего за 1$. Внимание количество ограничено!!!

OK

1+1

iTunes

мы

OK

1

WEB-DLRip

Джокер

Пифагор

Ведьмак / The Witcher сериал

Лицензия

ПШазам

ОК

Оно 2

iTunes

30
pack

Вам бонус

ВАЖНО

!!Акция!!

Alien_RageХит недели

RePack

Resident Evil 21

ИГРА 18+

pack

RePack

jed

!!Акция!!

Alien_Rage

RePack

fifa19

RePack

Assassins Creed: Odyssey

RePack

NEED FOR SPEED™ PAYBACK

4 сезон

9 сезон

Бесстыжие 9 сезон

Все сериалы

все сериалы на PB.wtf

RePack

FAR CRY 5
  

Эверест / Everest (Бальтасар Кормакур) [2015, триллер, драма, приключения, WEB-DLRip, Дубляж] iTunes pb.wtf

Эверест через торрент pb.wtf

Раздают: 1 [ 0 KB/s ]
Размер: 1.46 GB | Добавлен: 4 года 2 мес. назад | Торрент скачан:4163 раза
Скачать  

18-11-2015 20:44 Эверест Скачать торрент  


Эверест / Everest
««Самое опасное место на планете»»

ИНФОРМАЦИЯ:
Год выпуска:2015
Страна: США, Великобритания, Исландия
Жанр: триллер, драма, приключения, биография, история
Продолжительность: 02:01:11
Перевод: Дубляж - [Лицензия / iTunes]
Режиссер: Бальтасар Кормакур

В Ролях:


Джейсон Кларк (Rob Hall), Джош Бролин (Beck Weathers), Джейк Джилленхол (Scott Fischer), Сэм Уортингтон (Guy Cotter), Джон Хоукс (Doug Hansen), Майкл Келли (Jon Krakauer), Ингвар Эггерт Сигюрдссон (Anatoli Boukreev), Кира Найтли (Jan Arnold), Эмили Уотсон (Helen Wilton), Робин Райт (Peach Weathers), Мартин Хендерсон (Andy «Harold» Harris), Томас М. Райт (Michael Groom)

Описание:
Эверест - великая неприступная гора, покорить вершину которой мечтают многие профессиональные альпинисты. Одна из экспедиций на ее вершину закончилась настоящей трагедией, однако этот факт не останавливает отважных альпинистов.
Опытный инструктор Роб Холл, собрав группу из лучших альпинистов, собирается совершить восхождение на самую высокую вершину планеты. Все эти люди полны мужества и отваги и они не остановятся ни перед чем, пока не поднимутся на вершину Эвереста. Но даже если эта гора покорится им, смогут ли они вернуться обратно живыми и невредимыми?..

  • Мировая премьера:2 сентября 2015

    ТЕХ.ДАННЫЕ:
    Качество: WEB-DLRip
    Формат: AVI
    Видео: XviD, 720x304 (2.35:1), 1332 kbps, 23,976 fps, 0,254 bpp
    Аудио: AC3 / 5.1 / 48 kHz / 384 kbps / 16 bit


    General
    Complete name : D:\Торенты\3B3P3Ct.2015.D.WEB-DLRip.1.46GB.avi
    Format : AVI
    Format/Info : Audio Video Interleave
    File size : 1.46 GiB
    Duration : 2h 1mn
    Overall bit rate : 1 726 Kbps
    Writing application : VirtualDubMod 1.5.10.3 | www.virtualdub-fr.org || (build 2550/release)
    Writing library : VirtualDubMod build 2550/release

    Video
    ID : 0
    Format : MPEG-4 Visual
    Format profile : Advanced Simple@L5
    Format settings, BVOP : 2
    Format settings, QPel : No
    Format settings, GMC : No warppoints
    Format settings, Matrix : Default (MPEG)
    Codec ID : XVID
    Codec ID/Hint : XviD
    Duration : 2h 1mn
    Bit rate : 1 333 Kbps
    Width : 720 pixels
    Height : 304 pixels
    Display aspect ratio : 2.35:1
    Frame rate : 23.976 fps
    Color space : YUV
    Chroma subsampling : 4:2:0
    Bit depth : 8 bits
    Scan type : Progressive
    Compression mode : Lossy
    Bits/(Pixel*Frame) : 0.254
    Stream size : 1.13 GiB (77%)
    Writing library : XviD 1.2.1 (UTC 2008-12-04)

    Audio
    ID : 1
    Format : AC-3
    Format/Info : Audio Coding 3
    Mode extension : CM (complete main)
    Codec ID : 2000
    Duration : 2h 1mn
    Bit rate mode : Constant
    Bit rate : 384 Kbps
    Channel(s) : 6 channels
    Channel positions : Front: L C R, Side: L R, LFE
    Sampling rate : 48.0 KHz
    Bit depth : 16 bits
    Compression mode : Lossy
    Stream size : 333 MiB (22%)
    Alignment : Split accross interleaves
    Interleave, duration : 42 ms (1.00 video frame)
    Interleave, preload duration : 500 ms
    Скриншоты:

    © Оформление by .::Ворон::.
    pb.wtf



  • Скачать Эверест через торрент http://pic.kartinco.top/images/6/ordi9.jpg Скачать фильм Эверест через торрент бесплантно в хорошем качестве Описание: Эверест - великая неприступная гора, покорить вершину которой мечтают многие профессиональные альпинисты. Одна из экспедиций на ... 9.8 10 94
    Info! Золотая раздача, скачанное не засчитывается.
    Торрент: Зарегистрирован [2015-11-18 20:44] · скачан: 4 163 раз
    Статус: √ проверено
    Размер: 1.46 GB
    Как cкачать? Как скачать Эверест через торрент | qTorrent

    % Раздел Тема Автор DL S | L
    Фильмы 2015 [DVDrip, WEB-DLRip, HDrip] [ 2.19 GB ] Эверест / Everest [2015 Исландия HDRip - / ] _KaisiK_ Скачать
    1 | 0
    Фильмы (WEB-DL 720p, 1080p) [ 4.16 GB ] Эверест / Everest [2015 WEB-DL 1080p ] Ворон Скачать
    1 | 0
    Фильмы 2015 [DVDrip, WEB-DLRip, HDrip] [ 1.46 GB ] Эверест / Everest [2015 HDRip] $-DRON-$ Скачать
    1 | 0
    Фильмы (WEB-DL 720p, 1080p) [ 3.8 GB ] Эверест / Everest [2015 биография история WEB-DL 720p $-DRON-$ Скачать
    1 | 0

    28-11-2019 20:33  

    Отключить всю рекламу на сайте

    20-11-2015 10:28 Эверест Скачать торрент  

    Просто ни о чем! 2/10pb.wtf



    21-11-2015 12:04 Эверест Скачать торрент  

    Тяжелый фильм, но очень зрелищный + на основе реальных событий. Смотреть лучше в кинотеатре, на обычном экране так не торкнет.pb.wtf



    25-11-2015 19:08 Эверест Скачать торрент  

    Grogan писал(а):

    Тяжелый фильм, но очень зрелищный + на основе реальных событий. Смотреть лучше в кинотеатре, на обычном экране так не торкнет.

    согласен , смотрел в кинотеатре , лично мне понравилось !pb.wtf



    26-11-2015 09:56 Эверест Скачать торрент  

    Ребят, как торрент? Китайских субтитров нет???pb.wtf



    26-11-2015 10:18 Эверест Скачать торрент  

    Elise, нетpb.wtf



    29-11-2015 12:12 Эверест Скачать торрент  

    Мне фильм понравился, автору спс! Всегда поражает в альпинистах то, что ставят на кон свою жизнь, для достижения вершины!pb.wtf



    12-12-2015 16:30 Эверест Скачать торрент  

    Фильм сильный, стоит смотреть только с середины.pb.wtf



    14-12-2015 23:32 Эверест Скачать торрент  

    Думал всё будет драматичней, понятно что на реальных, но как то режиссёр не дал мне всё это прочувствовать.pb.wtf



    24-12-2015 23:03 Эверест Скачать торрент  

    Фильм крутой но можно было как-нибудь позахватывающей.а то кроме вида на гору больше нечего нет.pb.wtf



      Дорогой пользователь! Огромная просьба, поблагодарите релизера, оцените раздачу и оставьте свои комментарий, если Вы скачали Эверест через торрент бесплатно! Внесите свою лепту в развитие PiratBit!
      Комментировать посты могут только пользователи прошедшие не сложную регистрацию
      Показать сообщения:    

      Эверест через торрент
      Скачать бесплатно Эверест
      Эверест скачать торрент
      Эверест смотреть онлайн
      Cкачать фильм Эверест бесплатно
      Эверест скачать торрент в хорошем качестве
      Эверест смотреть онлайн бесплатно в хорошем качестве


      Вы не можете начинать темы
      Вы не можете отвечать на сообщения
      Вы не можете редактировать свои сообщения
      Вы не можете удалять свои сообщения
      Вы не можете голосовать в опросах
      Вы не можете прикреплять файлы к сообщениям
      Вы можете скачивать файлы