Ссылка на приватное зеркало всего за 1$. Внимание количество ограничено!!!

OK

1+1

iTunes

мы

OK

1

WEB-DLRip

Джокер

Пифагор

Ведьмак / The Witcher сериал

iTunes

ПШазам

ОК

Оно 2

iTunes

30
pack

Вам бонус

ВАЖНО

!!Акция!!

Alien_RageХит недели

RePack

Resident Evil 21

ИГРА 18+

pack

RePack

jed

RePack

fifa19

RePack

Assassins Creed: Odyssey

RePack

NEED FOR SPEED™ PAYBACK

4 сезон

9 сезон

Бесстыжие 9 сезон

Все сериалы

все сериалы на PB.wtf

RePack

FAR CRY 5
  

Дама в очках и с ружьем в автомобиле / La dame dans l'auto avec des lunettes et un fusil (Жоанн Сфар) [2015, триллер, WEB-DLRip, Дубляж] iTunes pb.wtf

Дама в очках и с ружьем в автомобиле через торрент pb.wtf

Размер: 1.45 GB | Добавлен: 4 года 2 мес. назад | Торрент скачан:665 раз
Скачать  

18-11-2015 22:36 Дама в очках и с ружьем в автомобиле Скачать торрент  


Дама в очках и с ружьем в автомобиле / La dame dans l'auto avec des lunettes et un fusil


ИНФОРМАЦИЯ:
Год выпуска:2015
Страна: Франция, Бельгия
Жанр: триллер
Продолжительность: 01:34:48
Перевод: Дубляж - [Лицензия / iTunes]
Режиссер: Жоанн Сфар

В Ролях:


Фрейя Мавор (Dany Dorémus), Бенжамин Биолэй (Michel Caravaille), Элио Джермано (Stefano, dit Georges (Le jeune homme aux yeux noirs)), Стэйси Мартин (Anita), Тьерри Анкиссе (Le garagiste), Сандрин Ларош (La femme du garagiste), Фредерик Этерлинк (Un type de la station service), Ален Белло (L'autre type de la station service), Эдуар Жиар (Le routier bouquet de violettes), Франсуа-Доминик Блен (Le routier du relais), Ноэми Моралес (Sylvie), Лу Ламбрехт (La petite fille du garagiste)

Описание:
Она самая прекрасная, самая чувственная, самая импульсивная, самая упрямая, самая незадачливая девушка. Она хотела воплотить мечту и увидеть море, а в результате попала в невероятную переделку. В чужом автомобиле и с трупом в багажнике, скрываясь от полиции и рискуя собственной жизнью, ей осталось только одно - убедить себя в том, что она еще не окончательно сошла с ума, и что она - это она, а не кто-то другой...

  • Мировая премьера:5 августа 2015

    ТЕХ.ДАННЫЕ:
    Качество: WEB-DLRip
    Формат: AVI
    Видео: XviD, 720x304 (2.35:1), 1716 kbps, 24 fps, 0,327 bpp
    Аудио: AC3 / 5.1 / 48 kHz / 384 kbps / 16 bit


    General
    Complete name : D:\Торенты\DeByshka.V.0Chkax.2015.D.WEB-DLRip.1.46GB.avi
    Format : AVI
    Format/Info : Audio Video Interleave
    File size : 1.45 GiB
    Duration : 1h 34mn
    Overall bit rate : 2 196 Kbps
    Writing application : VirtualDubMod 1.5.10.2 (build 2540/release)
    Writing library : VirtualDubMod build 2540/release

    Video
    ID : 0
    Format : MPEG-4 Visual
    Format profile : Advanced Simple@L5
    Format settings, BVOP : 2
    Format settings, QPel : No
    Format settings, GMC : No warppoints
    Format settings, Matrix : Default (MPEG)
    Codec ID : XVID
    Codec ID/Hint : XviD
    Duration : 1h 34mn
    Bit rate : 1 716 Kbps
    Width : 720 pixels
    Height : 304 pixels
    Display aspect ratio : 2.35:1
    Frame rate : 24.000 fps
    Color space : YUV
    Chroma subsampling : 4:2:0
    Bit depth : 8 bits
    Scan type : Progressive
    Compression mode : Lossy
    Bits/(Pixel*Frame) : 0.327
    Stream size : 1.14 GiB (78%)
    Writing library : XviD 1.2.1 (UTC 2008-12-04)

    Audio
    ID : 1
    Format : AC-3
    Format/Info : Audio Coding 3
    Mode extension : CM (complete main)
    Codec ID : 2000
    Duration : 1h 34mn
    Bit rate mode : Constant
    Bit rate : 384 Kbps
    Channel(s) : 6 channels
    Channel positions : Front: L C R, Side: L R, LFE
    Sampling rate : 48.0 KHz
    Bit depth : 16 bits
    Compression mode : Lossy
    Stream size : 260 MiB (17%)
    Alignment : Split accross interleaves
    Скриншоты:

    © Оформление by .::Ворон::.
    pb.wtf



  • Скачать Дама в очках и с ружьем в автомобиле через торрент http://pic.kartinco.top/images/6/ordi9.jpg Скачать фильм Дама в очках и с ружьем в автомобиле через торрент бесплантно в хорошем качестве Описание: Она самая прекрасная, самая чувственная, самая импульсивная, самая упрямая, самая незадачливая девушка. Она хотела воплотить ... 9.9 10 19
    Торрент: Зарегистрирован [2015-11-18 22:36] · скачан: 665 раз
    Статус: √ проверено
    Размер: 1.45 GB
    Как cкачать? Как скачать Дама в очках и с ружьем в автомобиле через торрент | qTorrent

    28-11-2019 20:33  

    Отключить всю рекламу на сайте


    19-11-2015 15:31 Дама в очках и с ружьем в автомобиле Скачать торрент  

    Спасибо за раздачу. Фильм не понравился. Полтора часа бестолковой муры.pb.wtf



    19-11-2015 16:59 Дама в очках и с ружьем в автомобиле Скачать торрент  

    Ворон, я знал что вы найдете решение с сайтом респект и уважуха!!!pb.wtf



      Дорогой пользователь! Огромная просьба, поблагодарите релизера, оцените раздачу и оставьте свои комментарий, если Вы скачали Дама в очках и с ружьем в автомобиле через торрент бесплатно! Внесите свою лепту в развитие PiratBit!
      Комментировать посты могут только пользователи прошедшие не сложную регистрацию
      Показать сообщения:    

      Дама в очках и с ружьем в автомобиле через торрент
      Скачать бесплатно Дама в очках и с ружьем в автомобиле
      Дама в очках и с ружьем в автомобиле скачать торрент
      Дама в очках и с ружьем в автомобиле смотреть онлайн
      Cкачать фильм Дама в очках и с ружьем в автомобиле бесплатно
      Дама в очках и с ружьем в автомобиле скачать торрент в хорошем качестве
      Дама в очках и с ружьем в автомобиле смотреть онлайн бесплатно в хорошем качестве


      Вы не можете начинать темы
      Вы не можете отвечать на сообщения
      Вы не можете редактировать свои сообщения
      Вы не можете удалять свои сообщения
      Вы не можете голосовать в опросах
      Вы не можете прикреплять файлы к сообщениям
      Вы можете скачивать файлы