Ссылка на приватное зеркало всего за 1$. Внимание количество ограничено!!!

iTunes

iTunes

iTunes

1

iTunes

iTunes

iTunes

iTunes

iTunes

30
pack

$ от Little Big

ВАЖНО

!!Акция!!

Alien_RageХит недели

RePack

Resident Evil 21

ИГРА 18+

pack

RePack

jed

!!Акция!!

Alien_Rage

RePack

fifa19

RePack

Assassins Creed: Odyssey

RePack

NEED FOR SPEED™ PAYBACK

4 сезон

9 сезон

Бесстыжие 9 сезон

Все сериалы

все сериалы на PB.wtf

RePack

FAR CRY 5
  

Дама в очках и с ружьем в автомобиле / La dame dans l'auto avec des lunettes et un fusil (Жоанн Сфар) [2015, триллер, WEB-DL 1080p, Дубляж] iTunes pb.wtf

Дама в очках и с ружьем в автомобиле через торрент pb.wtf

Размер: 3.21 GB | Добавлен: 4 года 7 мес. назад | Торрент скачан:293 раза
Скачать  

18-11-2015 22:38 Дама в очках и с ружьем в автомобиле Скачать торрент  


Дама в очках и с ружьем в автомобиле / La dame dans l'auto avec des lunettes et un fusil


ИНФОРМАЦИЯ:
Год выпуска:2015
Страна: Франция, Бельгия
Жанр: триллер
Продолжительность: 01:34:48
Перевод: Дубляж - [Лицензия / iTunes]
Режиссер: Жоанн Сфар

В Ролях:


Фрейя Мавор (Dany Dorémus), Бенжамин Биолэй (Michel Caravaille), Элио Джермано (Stefano, dit Georges (Le jeune homme aux yeux noirs)), Стэйси Мартин (Anita), Тьерри Анкиссе (Le garagiste), Сандрин Ларош (La femme du garagiste), Фредерик Этерлинк (Un type de la station service), Ален Белло (L'autre type de la station service), Эдуар Жиар (Le routier bouquet de violettes), Франсуа-Доминик Блен (Le routier du relais), Ноэми Моралес (Sylvie), Лу Ламбрехт (La petite fille du garagiste)

Описание:
Она самая прекрасная, самая чувственная, самая импульсивная, самая упрямая, самая незадачливая девушка. Она хотела воплотить мечту и увидеть море, а в результате попала в невероятную переделку. В чужом автомобиле и с трупом в багажнике, скрываясь от полиции и рискуя собственной жизнью, ей осталось только одно - убедить себя в том, что она еще не окончательно сошла с ума, и что она - это она, а не кто-то другой...

  • Мировая премьера:5 августа 2015

    ТЕХ.ДАННЫЕ:
    Качество: WEB-DL 1080p
    Формат: MKV
    Видео: AVC, 1920x804 (2.40:1), 4365 kbps, 24 fps, 0,118 bpp
    Аудио: русский / AC3 / 5.1 / 48 kHz / 384 kbps / 16 bit ||
    Навигация по главам: есть


    General
    Unique ID : 195031370595203195660808892270914581477 (0x92B9ACF8DE1CBAA390CAC2149A1C33E5)
    Complete name : D:\Торенты\DeByshka.V.0Chkax.2015.D.WEB-DL.1080p.mkv
    Format : Matroska
    Format version : Version 4 / Version 2
    File size : 3.21 GiB
    Duration : 1h 34mn
    Overall bit rate : 4 846 Kbps
    Encoded date : UTC 2015-11-18 20:31:02
    Writing application : mkvmerge v8.3.0 ('Over the Horizon') 64bit
    Writing library : libebml v1.3.1 + libmatroska v1.4.2

    Video
    ID : 1
    Format : AVC
    Format/Info : Advanced Video Codec
    Format profile : High@L4.0
    Format settings, CABAC : Yes
    Format settings, ReFrames : 5 frames
    Codec ID : V_MPEG4/ISO/AVC
    Duration : 1h 34mn
    Bit rate : 4 365 Kbps
    Width : 1 920 pixels
    Height : 804 pixels
    Display aspect ratio : 2.40:1
    Frame rate : 24.000 fps
    Color space : YUV
    Chroma subsampling : 4:2:0
    Bit depth : 8 bits
    Scan type : Progressive
    Bits/(Pixel*Frame) : 0.118
    Stream size : 2.89 GiB (90%)
    Language : English
    Default : Yes
    Forced : No
    Color primaries : BT.709-5, BT.1361, IEC 61966-2-4, SMPTE RP177
    Transfer characteristics : BT.709-5, BT.1361
    Matrix coefficients : BT.709-5, BT.1361, IEC 61966-2-4 709, SMPTE RP177

    Audio
    ID : 2
    Format : AC-3
    Format/Info : Audio Coding 3
    Mode extension : CM (complete main)
    Codec ID : A_AC3
    Duration : 1h 34mn
    Bit rate mode : Constant
    Bit rate : 384 Kbps
    Channel(s) : 6 channels
    Channel positions : Front: L C R, Side: L R, LFE
    Sampling rate : 48.0 KHz
    Bit depth : 16 bits
    Compression mode : Lossy
    Stream size : 260 MiB (8%)
    Language : Russian
    Default : Yes
    Forced : No

    Menu
    00:00:00.000 : en:Глава 1
    00:02:50.000 : en:Глава 2
    00:12:32.000 : en:Глава 3
    00:22:06.000 : en:Глава 4
    00:31:21.000 : en:Глава 5
    00:38:51.000 : en:Глава 6
    00:48:15.000 : en:Глава 7
    00:57:22.000 : en:Глава 8
    01:07:04.000 : en:Глава 9
    01:16:31.000 : en:Глава 10
    01:24:36.000 : en:Глава 11
    Скриншоты:

    © Оформление by .::Ворон::.
    pb.wtf



  • Скачать Дама в очках и с ружьем в автомобиле через торрент http://pic.kartinco.top/images/6/ordi9.jpg Скачать фильм Дама в очках и с ружьем в автомобиле через торрент бесплантно в хорошем качестве Описание: Она самая прекрасная, самая чувственная, самая импульсивная, самая упрямая, самая незадачливая девушка. Она хотела воплотить ... 9.5 10 6
    Торрент: Зарегистрирован [2015-11-18 22:38] · скачан: 293 раз
    Статус: √ проверено
    Размер: 3.21 GB
    Как cкачать? Как скачать Дама в очках и с ружьем в автомобиле через торрент | qTorrent

    28-11-2019 20:33  

    Отключить всю рекламу на сайте

    23-11-2015 23:20 Дама в очках и с ружьем в автомобиле Скачать торрент  

    Нонсонс(
    Зачем вообще снимать такой фильм я не понимаю ну дурной и все :hunter:
    Вроде хотели видимо интригу создать в фильме, а оказался полный тупизм жаль потраченного времени(pb.wtf



      Дорогой пользователь! Огромная просьба, поблагодарите релизера, оцените раздачу и оставьте свои комментарий, если Вы скачали Дама в очках и с ружьем в автомобиле через торрент бесплатно! Внесите свою лепту в развитие PiratBit!
      Комментировать посты могут только пользователи прошедшие не сложную регистрацию
      Показать сообщения:    

      Дама в очках и с ружьем в автомобиле через торрент
      Скачать бесплатно Дама в очках и с ружьем в автомобиле
      Дама в очках и с ружьем в автомобиле скачать торрент
      Дама в очках и с ружьем в автомобиле смотреть онлайн
      Cкачать фильм Дама в очках и с ружьем в автомобиле бесплатно
      Дама в очках и с ружьем в автомобиле скачать торрент в хорошем качестве
      Дама в очках и с ружьем в автомобиле смотреть онлайн бесплатно в хорошем качестве


      Вы не можете начинать темы
      Вы не можете отвечать на сообщения
      Вы не можете редактировать свои сообщения
      Вы не можете удалять свои сообщения
      Вы не можете голосовать в опросах
      Вы не можете прикреплять файлы к сообщениям
      Вы можете скачивать файлы