2 сезон

iTunes

1 сезон

1

iTunes

iTunes

iTunes

1 сезон

RePack

30

ИГРА 18+

pack

ВАЖНО

!!Акция!!

Alien_RageХит недели

RePack

MK11
pack

Забери бонус

RePack

jed

!!Акция!!

Alien_Rage

RePack

fifa19

RePack

Assassins Creed: Odyssey

RePack

NEED FOR SPEED™ PAYBACK

4 сезон

9 сезон

Бесстыжие 9 сезон

Все сериалы

все сериалы на PB.wtf

RePack

FAR CRY 5
  

Мандарины / Mandariinid (Заза Урушадзе) [2013, драма, военный, BDRip 720p by msltel] pb.wtf

Мандарины через торрент pb.wtf

Размер: 2.72 GB | Добавлен: 4 года 11 мес. назад | Торрент скачан:129 раз
Скачать  

19-11-2015 11:41 Мандарины Скачать торрент  

Название: Мандарины
Оригинальное название: Mandariinid
Год выпуска: 2013
Страна: Эстония, Грузия
Жанр: драма, военный
Продолжительность: 01:22:59
Язык: Русский/эстонский

Режиссёр: Заза Урушадзе

В ролях: Лембит Ульфсак, Георгий Накашидзе, Элмо Нюганен, Миша Месхи, Райво Трасс, Зура Бегалишвили, Давид Хахидзе, Джано Изория, Гия Гогишвили, Вамех Янгидзе

Описание: 1992 год. Абхазия. Древнее эстонское село, расположенное в живописном месте между горами и морем, опустело. Эстонцы вернулись на свою историческую родину. Остались только хозяин товарного цеха Иво, его сосед - владелец мандариновой плантации Маргус и местный доктор Юхан, который уже готов покинуть селение. Маргус также собирается уехать в Эстонию, но лишь после того, как будет собран урожай мандаринов. Война доходит до села, происходит боевое столкновение между грузинами и абхазцами. После боя Иво и Маргус находят одного оставшегося в живых чеченского наёмника по имени Ахмед, который воюет на абхазской стороне. Иво забирает Ахмеда к себе домой, чтобы его вылечить. Ночью, хороня погибших, Маргус обнаруживает, что, несмотря на тяжёлое ранение, в бою выжил и один грузин — молодой парень Ника. Его тоже относят в дом Иво. Так под одной крышей оказываются бойцы противоборствующих сторон...



Качество: BDRip 720p Сравнение с исходником
Формат: MKV
Видео: MPEG-4 AVC, 4144 Кбит/с, 1280x536, 25 кадра/с
Аудио: русский/эстонский, AC3, 448 kbps, 6 ch, 48 kHz
Субтитры: русские (на места без перевода)
Общее
Уникальный идентификатор : 250409079317175727969429889715512286306 (0xBC6308CFC5751C96B7AD671B12981C62)
Полное имя : D:VideoМандарины.2013.BDRip.720p.mkv
Формат : Matroska
Версия формата : Version 4 / Version 2
Размер файла : 2,72 Гбайт
Продолжительность : 1 ч. 22 м.
Общий поток : 4685 Кбит/сек
Название фильма : BDRip -- STarankov
Дата кодирования : UTC 2015-11-19 10:33:31
Программа кодирования : mkvmerge v8.2.0 ('World of Adventure') 64bit
Библиотека кодирования : libebml v1.3.1 + libmatroska v1.4.2
DURATION : 01:13:26.439000000
NUMBER_OF_FRAMES : 166
NUMBER_OF_BYTES : 9088
_STATISTICS_WRITING_APP : mkvmerge v8.2.0 ('World of Adventure') 64bit
_STATISTICS_WRITING_DATE_UTC : 2015-11-19 10:33:31
_STATISTICS_TAGS : BPS DURATION NUMBER_OF_FRAMES NUMBER_OF_BYTES

Видео
Идентификатор : 1
Формат : AVC
Формат/Информация : Advanced Video Codec
Профиль формата : High@L4.1
Параметр CABAC формата : Да
Параметр ReFrames формата : 9 кадров
Идентификатор кодека : V_MPEG4/ISO/AVC
Продолжительность : 1 ч. 22 м.
Битрейт : 4144 Кбит/сек
Ширина : 1280 пикселей
Высота : 536 пикселей
Соотношение сторон : 2,40:1
Режим частоты кадров : Постоянный
Частота кадров : 25,000 кадров/сек
Цветовое пространство : YUV
Субдискретизация насыщенности : 4:2:0
Битовая глубина : 8 бит
Тип развёртки : Прогрессивная
Бит/(Пиксели*Кадры) : 0.242
Размер потока : 2,40 Гбайт (88%)
Библиотека кодирования : x264 core 146 r2538 121396c
Настройки программы : cabac=1 / ref=9 / deblock=1:-1:-1 / analyse=0x3:0x113 / me=umh / subme=10 / psy=1 / psy_rd=1.00:0.15 / mixed_ref=1 / me_range=32 / chroma_me=1 / trellis=2 / 8x8dct=1 / cqm=0 / deadzone=21,11 / fast_pskip=1 / chroma_qp_offset=-3 / threads=6 / lookahead_threads=1 / sliced_threads=0 / nr=0 / decimate=1 / interlaced=0 / bluray_compat=0 / constrained_intra=0 / bframes=9 / b_pyramid=2 / b_adapt=2 / b_bias=0 / direct=1 / weightb=1 / open_gop=0 / weightp=2 / keyint=240 / keyint_min=24 / scenecut=40 / intra_refresh=0 / rc_lookahead=40 / rc=crf / mbtree=0 / crf=17.0 / qcomp=0.60 / qpmin=0 / qpmax=69 / qpstep=4 / vbv_maxrate=40000 / vbv_bufsize=50000 / crf_max=0.0 / nal_hrd=none / filler=0 / ip_ratio=1.40 / pb_ratio=1.30 / aq=1:1.00
Язык : Estonian
Default : Да
Forced : Нет
DURATION : 01:22:59.760000000
NUMBER_OF_FRAMES : 124494
NUMBER_OF_BYTES : 2636120285
_STATISTICS_WRITING_APP : mkvmerge v8.2.0 ('World of Adventure') 64bit
_STATISTICS_WRITING_DATE_UTC : 2015-11-19 10:33:31
_STATISTICS_TAGS : BPS DURATION NUMBER_OF_FRAMES NUMBER_OF_BYTES

Аудио
Идентификатор : 2
Формат : AC-3
Формат/Информация : Audio Coding 3
Расширение режима : CM (complete main)
Параметр Endianness формата : Big
Идентификатор кодека : A_AC3
Продолжительность : 1 ч. 22 м.
Вид битрейта : Постоянный
Битрейт : 448 Кбит/сек
Каналы : 6 каналов
Расположение каналов : Front: L C R, Side: L R, LFE
Частота : 48,0 КГц
Метод сжатия : С потерями
Размер потока : 266 Мбайт (10%)
Заголовок : русский/эстонский
Язык : Russian
Default : Да
Forced : Нет

Текст
Идентификатор : 3
Формат : UTF-8
Идентификатор кодека : S_TEXT/UTF8
Идентификатор кодека/Информация : UTF-8 Plain Text
Заголовок : русский (на места без перевода)
Язык : Russian
Default : Да
Forced : Да
pb.wtf



Скачать Мандарины через торрент http://i003.radikal.ru/1511/5a/cc444a5cce84.png Скачать фильм Мандарины через торрент бесплантно в хорошем качестве Описание: 1992 год. Абхазия. Древнее эстонское село, расположенное в живописном месте между горами и морем, опустело. Эстонцы вернулись на ... 7 10 3
Торрент: Зарегистрирован [2015-11-19 11:41] · скачан: 129 раз
Статус: √ проверено
Размер: 2.72 GB
Как cкачать? Как скачать Мандарины через торрент | qTorrent

% Раздел Тема Автор DL S | L
Фильмы (WEB-DL 720p, 1080p) [ 2.96 GB ] Мандарины / Mandariinid [2013 военный WEB-DL 1080p] Ворон Скачать
1 | 0
Фильмы 2013 [DVDrip, WEB-DLRip, HDrip] [ 744 MB ] Мандарины / Mandariinid [2013 Эстония Грузия военный BDRip-AVC от sokol_ok] [] sokol_ok Скачать
2 | 0
Фильмы 2013 [DVDrip, WEB-DLRip, HDrip] [ 1.45 GB ] Мандарины / Mandariinid [2013 Эстония Грузия военный BDRip-AVC от sokol_ok] [] sokol_ok Скачать
2 | 0
Фильмы 2013 [DVDrip, WEB-DLRip, HDrip] [ 1.47 GB ] Мандарины / Mandariinid [2013 военный HDRip Оригинал] coc900 Скачать
1 | 0
Фильмы 2013 [DVDrip, WEB-DLRip, HDrip] [ 1.92 GB ] Мандарины / Mandariinid [2013 военный BDRip AVC by msltel] msltel Скачать
1 | 0
Фильмы 2013 [DVDrip, WEB-DLRip, HDrip] [ 1.37 GB ] Мандарины / Mandariinid [2013 военный WEB-DLRip / ] Ворон Скачать
1 | 0

28-11-2019 20:33  

Отключить всю рекламу на сайте

19-11-2015 17:12 Мандарины Скачать торрент  

фильм судя по всему неплохойpb.wtf



27-12-2015 14:20 Мандарины Скачать торрент  

это реинкарнация кукушки ?pb.wtf



22-01-2016 18:57 Мандарины Скачать торрент  

mrAmerica писал(а):

фильм судя по всему неплохой

Если судя по эстонцам, то да, неплох.Совсем даже.pb.wtf



    Дорогой пользователь! Огромная просьба, поблагодарите релизера, оцените раздачу и оставьте свои комментарий, если Вы скачали Мандарины через торрент бесплатно! Внесите свою лепту в развитие PiratBit!
    Комментировать посты могут только пользователи прошедшие не сложную регистрацию
    Показать сообщения:    

    Мандарины через торрент
    Скачать бесплатно Мандарины
    Мандарины скачать торрент
    Мандарины смотреть онлайн
    Cкачать фильм Мандарины бесплатно
    Мандарины скачать торрент в хорошем качестве
    Мандарины смотреть онлайн бесплатно в хорошем качестве


    Вы не можете начинать темы
    Вы не можете отвечать на сообщения
    Вы не можете редактировать свои сообщения
    Вы не можете удалять свои сообщения
    Вы не можете голосовать в опросах
    Вы не можете прикреплять файлы к сообщениям
    Вы можете скачивать файлы