Ссылка на приватное зеркало всего за 1$. Внимание количество ограничено!!!

OK

1+1

iTunes

мы

OK

1

WEB-DLRip

Джокер

Пифагор

Ведьмак / The Witcher сериал

iTunes

ПШазам

ОК

Оно 2

iTunes

30
pack

Вам бонус

ВАЖНО

!!Акция!!

Alien_RageХит недели

RePack

Resident Evil 21

ИГРА 18+

pack

RePack

jed

RePack

fifa19

RePack

Assassins Creed: Odyssey

RePack

NEED FOR SPEED™ PAYBACK

4 сезон

9 сезон

Бесстыжие 9 сезон

Все сериалы

все сериалы на PB.wtf

RePack

FAR CRY 5
  

Фантастическая четверка / Fantastic Four (Джош Транк) [2015, фантастика, боевик, приключения, BDRip, Дубляж] iTunes pb.wtf

Фантастическая четверка через торрент pb.wtf

Размер: 1.39 GB | Добавлен: 4 года 2 мес. назад | Торрент скачан:360 раз
Скачать  

19-11-2015 20:18 Фантастическая четверка Скачать торрент  

Фантастическая четверка / Fantastic Four
««Всё изменится»»


Год выпуска: 2015
Страна: США, Германия, Великобритания, Канада
Жанр: фантастика, боевик, приключения
Продолжительность: 01:39:58
Перевод: Дубляж - [Лицензия / iTunes]
Режиссер: Джош Транк
В ролях:

Майлз Теллер (Reed Richards), Майкл Б. Джордан (Johnny Storm), Кейт Мара (Sue Storm), Джейми Белл (Ben Grimm / The Thing), Тоби Кеббелл (Victor Von Doom / Dr. Doom), Рег Э. Кэти (Dr. Franklin Storm), Тим Блейк Нельсон (Dr. Allen), Джошуа Монтес (Quarterback Speech School Kid), Дэн Кастелланета (Mr. Kenny), Оуэн Джадж (Young Reed), Кайлен Дэвис (Teasing School Kid), Ивэн Ханнеманн (Young Ben)
Описание:
История о четырех молодых астронавтах, которые отважились на авантюрное путешествие в параллельное измерение для исследования аномальной волны космической энергии. Вернувшись из путешествия, они обнаружили у себя суперспособности, которые навсегда изменили их жизни...

Качество: BDRip
Формат: AVI
Видео: XviD, 720x304 (2.35:1), 1513 kbps, 23,976 fps, 0,288 bpp
Аудио: AC3 / 5.1 / 48 kHz / 384 kbps / 16 bit

Код:

General
Complete name                            : D:\Торенты\Fantastic.Four.2015.BDRip.avi
Format                                   : AVI
Format/Info                              : Audio Video Interleave
File size                                : 1.39 GiB
Duration                                 : 1h 39mn
Overall bit rate                         : 1 985 Kbps
Writing application                      : VirtualDubModRus 1.5.10.2 (build 2542/release)
Writing library                          : VirtualDubMod build 2542/release

Video
ID                                       : 0
Format                                   : MPEG-4 Visual
Format profile                           : Advanced Simple@L5
Format settings, BVOP                    : 2
Format settings, QPel                    : No
Format settings, GMC                     : No warppoints
Format settings, Matrix                  : Default (H.263)
Muxing mode                              : Packed bitstream
Codec ID                                 : XVID
Codec ID/Hint                            : XviD
Duration                                 : 1h 39mn
Bit rate                                 : 1 514 Kbps
Width                                    : 720 pixels
Height                                   : 304 pixels
Display aspect ratio                     : 2.35:1
Frame rate                               : 23.976 fps
Color space                              : YUV
Chroma subsampling                       : 4:2:0
Bit depth                                : 8 bits
Scan type                                : Progressive
Compression mode                         : Lossy
Bits/(Pixel*Frame)                       : 0.288
Stream size                              : 1.06 GiB (76%)
Writing library                          : XviD 73

Audio
ID                                       : 1
Format                                   : AC-3
Format/Info                              : Audio Coding 3
Mode extension                           : CM (complete main)
Codec ID                                 : 2000
Duration                                 : 1h 39mn
Bit rate mode                            : Constant
Bit rate                                 : 384 Kbps
Channel(s)                               : 6 channels
Channel positions                        : Front: L C R, Side: L R, LFE
Sampling rate                            : 48.0 KHz
Bit depth                                : 16 bits
Compression mode                         : Lossy
Stream size                              : 275 MiB (19%)
Alignment                                : Split accross interleaves


© Оформление by White Smoke pb.wtf



Скачать Фантастическая четверка через торрент http://i5.imageban.ru/out/2015/11/19/0b7fed9d92bbd034401a3bf200670eb2.png Скачать фильм Фантастическая четверка через торрент бесплантно в хорошем качестве Описание: История о четырех молодых астронавтах, которые отважились на авантюрное путешествие в параллельное измерение для исследования ... 8.1 10 15
Торрент: Зарегистрирован [2015-11-19 20:18] · скачан: 360 раз
Статус: √ проверено
Размер: 1.39 GB
Как cкачать? Как скачать Фантастическая четверка через торрент | qTorrent

% Раздел Тема Автор DL S | L
Фильмы 2015 [DVDrip, WEB-DLRip, HDrip] [ 1.46 GB ] Фантастическая четверка / Fantastic Four [2015 BDRip-AVC] Dub potroks Скачать
1 | 0
Фильмы [HD 720p, 1080p] (Хороший звук DUB, MVO) [ 10.95 GB ] Фантастическая четверка / Fantastic Four [2015 BDRip 1080p ] Ворон Скачать
1 | 0

28-11-2019 20:33  

Отключить всю рекламу на сайте

    Дорогой пользователь! Огромная просьба, поблагодарите релизера, оцените раздачу и оставьте свои комментарий, если Вы скачали Фантастическая четверка через торрент бесплатно! Внесите свою лепту в развитие PiratBit!
    Комментировать посты могут только пользователи прошедшие не сложную регистрацию
    Показать сообщения:    

    Фантастическая четверка через торрент
    Скачать бесплатно Фантастическая четверка
    Фантастическая четверка скачать торрент
    Фантастическая четверка смотреть онлайн
    Cкачать фильм Фантастическая четверка бесплатно
    Фантастическая четверка скачать торрент в хорошем качестве
    Фантастическая четверка смотреть онлайн бесплатно в хорошем качестве


    Вы не можете начинать темы
    Вы не можете отвечать на сообщения
    Вы не можете редактировать свои сообщения
    Вы не можете удалять свои сообщения
    Вы не можете голосовать в опросах
    Вы не можете прикреплять файлы к сообщениям
    Вы можете скачивать файлы