Ссылка на приватное зеркало всего за 1$. Внимание количество ограничено!!!

OK

1+1

iTunes

мы

OK

1

WEB-DLRip

Джокер

Пифагор

Ведьмак / The Witcher сериал

iTunes

ПШазам

ОК

Оно 2

iTunes

30
pack

Вам бонус

ВАЖНО

!!Акция!!

Alien_RageХит недели

RePack

Resident Evil 21

ИГРА 18+

pack

RePack

jed

RePack

fifa19

RePack

Assassins Creed: Odyssey

RePack

NEED FOR SPEED™ PAYBACK

4 сезон

9 сезон

Бесстыжие 9 сезон

Все сериалы

все сериалы на PB.wtf

RePack

FAR CRY 5
  

Бегущий в лабиринте: Испытание огнём / Maze Runner: The Scorch Trials (Уэс Болл) [2015, фантастика, боевик, триллер, HDRip-AVC] [Dub] [Лицензия] pb.wtf

Бегущий в лабиринте: Испытание огнём через торрент pb.wtf

Размер: 2.18 GB | Добавлен: 4 года 2 мес. назад | Торрент скачан:1035 раз
Скачать  

19-11-2015 22:25 Бегущий в лабиринте: Испытание огнём Скачать торрент  

Бегущий в лабиринте: Испытание огнём / Maze Runner: The Scorch Trials
Год выпуска: 2015
Производство: США
Жанр: фантастика, боевик, триллер
Продолжительность: 02:11:42
Перевод: Профессиональный (полное дублирование) [Лицензия]
Субтитры: нет

Режиссер: Уэс Болл
Продюсеры: Марти Бауэн, Вик Годфри, Эллен Голдсмит-Вейн

Актеры: Дилан О’Брайен, Кая Скоделарио, Натали Эммануэль, Томас Сэнгстер, Кэтрин МакНамара, Эйдан Гиллен, Роза Салазар, Джанкарло Эспозито, Патришия Кларксон, Барри Пеппер Лабиринт пройден, но Томасу, Терезе, Минхо и прочим глэйдерам не приходится расслабляться. Таинственное руководство ПОРОКА — секретной организации, устроившей гонки на выживание — назначает ребятам новые, смертельно опасные испытания. На сей раз их ждет переход по раскаленной пустыне и встреча с жертвами неизлечимой болезни, которые отличаются буйным нравом и непредсказуемым поведением.



Качество: HDRip-AVC
Формат: MKV
Видео кодек: AVC
Аудио кодек: AC3
Видео: AVC at 1982 Кбит/сек, 1024 x 422 at 23.976 fps
Аудио: AC3, 384 kb/s, 6 каналов, 48 Кгц • Rus

Автор рипа -- • Tarkin
Формат : Matroska
Версия формата : Version 4 / Version 2
Размер файла : 2,18 Гбайт
Продолжительность : 2 ч. 11 м.
Общий поток : 2368 Кбит/сек
Дата кодирования : UTC 2015-11-19 21:58:59
Программа кодирования : mkvmerge v8.3.0 ('Over the Horizon') 32bit
Библиотека кодирования : libebml v1.3.1 + libmatroska v1.4.2
DURATION : 02:11:42.816000000
NUMBER_OF_FRAMES : 246963
NUMBER_OF_BYTES : 379335168
_STATISTICS_WRITING_APP : mkvmerge v8.3.0 ('Over the Horizon') 32bit
_STATISTICS_WRITING_DATE_UTC : 2015-11-19 21:58:59
_STATISTICS_TAGS : BPS DURATION NUMBER_OF_FRAMES NUMBER_OF_BYTES

Видео
Идентификатор : 1
Формат : AVC
Формат/Информация : Advanced Video Codec
Профиль формата : High@L4.1
Параметр CABAC формата : Да
Параметр ReFrames формата : 8 кадров
Идентификатор кодека : V_MPEG4/ISO/AVC
Продолжительность : 2 ч. 11 м.
Битрейт : 1982 Кбит/сек
Ширина : 1024 пикселя
Высота : 422 пикселя
Соотношение сторон : 2,40:1
Режим частоты кадров : Постоянный
Частота кадров : 23,976 кадра/сек
Цветовое пространство : YUV
Субдискретизация насыщенности : 4:2:0
Битовая глубина : 8 бит
Тип развёртки : Прогрессивная
Бит/(Пиксели*Кадры) : 0.191
Размер потока : 1,78 Гбайт (82%)
Библиотека кодирования : x264 core 119 r2106 07efeb4
Настройки программы : cabac=1 / ref=8 / deblock=1:-2:-2 / analyse=0x3:0x113 / me=umh / subme=9 / psy=1 / psy_rd=1.00:0.20 / mixed_ref=1 / me_range=24 / chroma_me=1 / trellis=2 / 8x8dct=1 / cqm=0 / deadzone=21,11 / fast_pskip=0 / chroma_qp_offset=-3 / threads=6 / sliced_threads=0 / nr=0 / decimate=0 / interlaced=0 / bluray_compat=0 / constrained_intra=0 / bframes=3 / b_pyramid=2 / b_adapt=2 / b_bias=0 / direct=3 / weightb=1 / open_gop=0 / weightp=2 / keyint=240 / keyint_min=23 / scenecut=40 / intra_refresh=0 / rc_lookahead=60 / rc=2pass / mbtree=1 / bitrate=1982 / ratetol=1.0 / qcomp=0.60 / qpmin=0 / qpmax=69 / qpstep=4 / cplxblur=20.0 / qblur=0.5 / vbv_maxrate=50000 / vbv_bufsize=50000 / nal_hrd=none / ip_ratio=1.40 / aq=1:1.00
Default : Да
Forced : Нет

Аудио
Идентификатор : 2
Формат : AC-3
Формат/Информация : Audio Coding 3
Расширение режима : CM (complete main)
Параметр Endianness формата : Big
Идентификатор кодека : A_AC3
Продолжительность : 2 ч. 11 м.
Вид битрейта : Постоянный
Битрейт : 384 Кбит/сек
Каналы : 6 каналов
Расположение каналов : Front: L C R, Side: L R, LFE
Частота : 48,0 КГц
Метод сжатия : С потерями
Размер потока : 362 Мбайт (16%)
Язык : Russian
Default : Да
Forced : Нет[/code]
pb.wtf



Скачать Бегущий в лабиринте: Испытание огнём через торрент http://i73.fastpic.ru/big/2015/1103/2f/59bbe83d4a27e71ddeab4ea04b0bd22f.png Скачать фильм Бегущий в лабиринте: Испытание огнём через торрент бесплантно в хорошем качестве Год выпуска: 2015Производство: СШАЖанр: фантастика, боевик, триллерПродолжительность: 02:11:42Перевод: Профессиональный (полное ... 9.3 10 27
Info! Золотая раздача, скачанное не засчитывается.
Торрент: Зарегистрирован [2015-11-20 06:48] · скачан: 1 035 раз
Статус: √ проверено
Размер: 2.18 GB
Как cкачать? Как скачать Бегущий в лабиринте: Испытание огнём через торрент | qTorrent

% Раздел Тема Автор DL S | L
Фильмы [HD 720p, 1080p] (Хороший звук DUB, MVO) [ 5.27 GB ] Бегущий в лабиринте: Испытание огнём / Maze Runner: The Scorch Trials [2015 BDRip 1080p HEVC ()] Мичман37 Скачать
1 | 0
Ultra HD (UHD: 2K, 4K, 8K) — видео сверхвысокой чёткости [ 46.97 GB ] Бегущий в лабиринте: Испытание огнём / Maze Runner: The Scorch Trials [2015 UHD BDRemux 2160p] DUB [] bober100 Скачать
1 | 0
Фильмы (BDRip, HDrip-AVC) (48-60 fps) [ 3.66 GB ] Бегущий в лабиринте: Испытание огнём / Maze Runner: The Scorch Trials [2015 BDRip-AVC 60 fps от R.G. Resident] - [] -Lexx- Скачать
2 | 0
Фильмы 2015 [DVDrip, WEB-DLRip, HDrip] [ 1.46 GB ] Бегущий в лабиринте: Испытание огнём / Maze Runner: The Scorch Trials [2015 BDRip] DUB Twi7ter Скачать
1 | 0
Фильмы (DVD фильмы) [ 7.48 GB ] Бегущий в лабиринте: Испытание огнём / Maze Runner: The Scorch Trials [2015 DVD9] R5 voovaz Скачать
1 | 0
Фильмы [HD 720p, 1080p] (Хороший звук DUB, MVO) [ 7.73 GB ] Бегущий в лабиринте: Испытание огнём / Maze Runner: The Scorch Trials [2015 BDRip 1080p от еnvy / NNNB] DUB еnvy Скачать
1 | 0
Фильмы 2015 [DVDrip, WEB-DLRip, HDrip] [ 1.46 GB ] Бегущий в лабиринте: Испытание огнём / Maze Runner: The Scorch Trials [2015 BDRip-AVC от sokol_ok] DUB sokol_ok Скачать
1 | 0


Последний раз редактировалось: killermax2013 (2015-11-20 06:48), всего редактировалось 1 раз

28-11-2019 20:33  

Отключить всю рекламу на сайте

20-11-2015 01:15 Бегущий в лабиринте: Испытание огнём Скачать торрент  

В этой раздаче первый фильм бегущего в лабиринте...pb.wtf



20-11-2015 04:16 Бегущий в лабиринте: Испытание огнём Скачать торрент  

nidom писал(а):

В этой раздаче первый фильм бегущего в лабиринте...

pb.wtf



20-11-2015 06:28 Бегущий в лабиринте: Испытание огнём Скачать торрент  

действительно , авторpb.wtf



  учитесь общаться!, выдал diletant

20-11-2015 06:49 Бегущий в лабиринте: Испытание огнём Скачать торрент  

Торент перезалит на правильный. Скачал 2 части и по ошибке не тот торент залил, извиняйте :pleasantry:pb.wtf



20-11-2015 08:52 Бегущий в лабиринте: Испытание огнём Скачать торрент  

Krowkiller писал(а):

действительно , автор д...л

То, что тебя за 3.5 года на сайте не отучили от хамства, упущение модераторов. Но, по жизни, неужели не понятно, что если тебе кто то предлагает что-нибудь бесплатно, то плевать в этого человека, по меньшей мере, некрасиво. pb.wtf



20-11-2015 09:27 Бегущий в лабиринте: Испытание огнём Скачать торрент  

Спасиб, давно ждал!))pb.wtf



20-11-2015 09:32 Бегущий в лабиринте: Испытание огнём Скачать торрент  

украйнский язык будет чипушило?pb.wtf



  оскорбление, выдал DEVI

20-11-2015 10:44 Бегущий в лабиринте: Испытание огнём Скачать торрент  

Спасибо, 1 часть понравилась, посмотрим и 2 =)pb.wtf



20-11-2015 14:09 Бегущий в лабиринте: Испытание огнём Скачать торрент  

кутарберды, pb.wtf



20-11-2015 16:28 Бегущий в лабиринте: Испытание огнём Скачать торрент  

killermax2013 писал(а):

кутарберды,

У него в жопе член, а во рту банан, он думать не может, только пишет)))pb.wtf



20-11-2015 20:55 Бегущий в лабиринте: Испытание огнём Скачать торрент  

Скачал 1 часть))) Прикол что ли?pb.wtf



    Дорогой пользователь! Огромная просьба, поблагодарите релизера, оцените раздачу и оставьте свои комментарий, если Вы скачали Бегущий в лабиринте: Испытание огнём через торрент бесплатно! Внесите свою лепту в развитие PiratBit!
    Комментировать посты могут только пользователи прошедшие не сложную регистрацию
    Показать сообщения:    

    Бегущий в лабиринте: Испытание огнём через торрент
    Скачать бесплатно Бегущий в лабиринте: Испытание огнём
    Бегущий в лабиринте: Испытание огнём скачать торрент
    Бегущий в лабиринте: Испытание огнём смотреть онлайн
    Cкачать фильм Бегущий в лабиринте: Испытание огнём бесплатно
    Бегущий в лабиринте: Испытание огнём скачать торрент в хорошем качестве
    Бегущий в лабиринте: Испытание огнём смотреть онлайн бесплатно в хорошем качестве


    Вы не можете начинать темы
    Вы не можете отвечать на сообщения
    Вы не можете редактировать свои сообщения
    Вы не можете удалять свои сообщения
    Вы не можете голосовать в опросах
    Вы не можете прикреплять файлы к сообщениям
    Вы можете скачивать файлы