Ссылка на приватное зеркало нашего сайта всего за 1$. Внимание количество ограничено!!!

2 сезон

iTunes

1 сезон

1

iTunes

iTunes

iTunes

1 сезон

RePack

30

ИГРА 18+

pack

ВАЖНО

!!Акция!!

Alien_RageХит недели

RePack

MK11
pack

Забери бонус

RePack

jed

!!Акция!!

Alien_Rage

RePack

fifa19

RePack

Assassins Creed: Odyssey

RePack

NEED FOR SPEED™ PAYBACK

4 сезон

9 сезон

Бесстыжие 9 сезон

Все сериалы

все сериалы на PB.wtf

RePack

FAR CRY 5
  

Сад зла / Garden of Evil (Генри Хэтэуэй) [1954, боевик, драма, мелодрама, приключения, вестерн, BDRip 1080p by msltel] MVO pb.wtf

Сад зла через торрент pb.wtf

Размер: 8.07 GB | Добавлен: 4 года 11 мес. назад | Торрент скачан:34 раза
Скачать  

20-11-2015 09:57 Сад зла Скачать торрент  

Название: Сад зла
Оригинальное название: Garden of Evil
Год выпуска: 1954
Страна: США
Жанр: боевик, драма, мелодрама, приключения, вестерн
Продолжительность: 01:40:08
Перевод: профессиональный многоголосый

Режиссёр: Генри Хэтэуэй

В ролях: Гэри Купер, Сьюзен Хэйуорд, Ричард Уидмарк, Хью Марлоу, Кэмерон Митчелл, Рита Морено, Виктор Мануэль Мендоза, Антонио Брибиска, Мануэль Донде, Артуро Сото Рангель, Сальвадор Терроба, Фернандо Вагнер

Описание: В баре мексиканского маленького портового городка «Пуэрто Мигель» из-за вынужденной стоянки парохода, плывущего в США, оказываются трое авантюристов Хукер, Фиске и Люк. Эти, совершенно разные по темпераменту люди, всегда не прочь заработать лёгких денег. Неожиданно в бар входит молодая женщина по имени Ли и предлагает тысячу долларов любому, кто поможет спасти её мужа Джона, застрявшего в ловушке обвалившейся шахты, где он нашёл золотую жилу. Парни, не моргнув глазом, соглашаются на эту сделку. Им предстоит пересечь опасную территорию, кишащую враждебно настроенными индейцами, вставшими на тропу войны с бледнолицыми...



Качество: BDRip 1080p Сравнение с исходником
Формат: MKV
Видео: MPEG-4 AVC, 9605 Кбит/с, 1920x752, 23,976 кадра/с
Аудио 1: русский, AC3, 192 kbps, 2 ch, 48 kHz [профессиональный многоголосый]
Аудио 2: английский, DTS, 1509 kbps, 2 ch, 48 kHz [оригинал]
Общее
Уникальный идентификатор : 238145543129373711422643182382081331615 (0xB32929CBA360D15AA0B421FF7BF7519F)
Полное имя : D:VideoСад зла.1954.BDRip.1080p.mkv
Формат : Matroska
Версия формата : Version 4 / Version 2
Размер файла : 8,07 Гбайт
Продолжительность : 1 ч. 40 м.
Общий поток : 11,5 Мбит/сек
Название фильма : BDRip -- STarankov
Дата кодирования : UTC 2015-11-20 04:41:16
Программа кодирования : mkvmerge v8.2.0 ('World of Adventure') 64bit
Библиотека кодирования : libebml v1.3.1 + libmatroska v1.4.2
DURATION : 01:40:08.928000000
NUMBER_OF_FRAMES : 563337
NUMBER_OF_BYTES : 1133434708
_STATISTICS_WRITING_APP : mkvmerge v8.2.0 ('World of Adventure') 64bit
_STATISTICS_WRITING_DATE_UTC : 2015-11-20 04:41:16
_STATISTICS_TAGS : BPS DURATION NUMBER_OF_FRAMES NUMBER_OF_BYTES

Видео
Идентификатор : 1
Формат : AVC
Формат/Информация : Advanced Video Codec
Профиль формата : High@L4.1
Параметр CABAC формата : Да
Параметр ReFrames формата : 4 кадра
Идентификатор кодека : V_MPEG4/ISO/AVC
Продолжительность : 1 ч. 40 м.
Битрейт : 9605 Кбит/сек
Ширина : 1920 пикселей
Высота : 752 пикселя
Соотношение сторон : 2,553
Режим частоты кадров : Постоянный
Частота кадров : 23,976 кадра/сек
Цветовое пространство : YUV
Субдискретизация насыщенности : 4:2:0
Битовая глубина : 8 бит
Тип развёртки : Прогрессивная
Бит/(Пиксели*Кадры) : 0.277
Размер потока : 6,72 Гбайт (83%)
Библиотека кодирования : x264 core 146 r2538 121396c
Настройки программы : cabac=1 / ref=4 / deblock=1:-1:-1 / analyse=0x3:0x113 / me=umh / subme=10 / psy=1 / psy_rd=1.00:0.15 / mixed_ref=1 / me_range=32 / chroma_me=1 / trellis=2 / 8x8dct=1 / cqm=0 / deadzone=21,11 / fast_pskip=1 / chroma_qp_offset=-3 / threads=6 / lookahead_threads=1 / sliced_threads=0 / nr=0 / decimate=1 / interlaced=0 / bluray_compat=0 / constrained_intra=0 / bframes=9 / b_pyramid=2 / b_adapt=2 / b_bias=0 / direct=1 / weightb=1 / open_gop=0 / weightp=2 / keyint=230 / keyint_min=23 / scenecut=40 / intra_refresh=0 / rc_lookahead=40 / rc=crf / mbtree=0 / crf=17.8 / qcomp=0.60 / qpmin=0 / qpmax=69 / qpstep=4 / vbv_maxrate=40000 / vbv_bufsize=50000 / crf_max=0.0 / nal_hrd=none / filler=0 / ip_ratio=1.40 / pb_ratio=1.30 / aq=1:1.00
Язык : English
Default : Да
Forced : Нет
DURATION : 01:40:08.711000000
NUMBER_OF_FRAMES : 144065
NUMBER_OF_BYTES : 7384489102
_STATISTICS_WRITING_APP : mkvmerge v8.2.0 ('World of Adventure') 64bit
_STATISTICS_WRITING_DATE_UTC : 2015-11-20 04:41:16
_STATISTICS_TAGS : BPS DURATION NUMBER_OF_FRAMES NUMBER_OF_BYTES

Аудио #1
Идентификатор : 2
Формат : AC-3
Формат/Информация : Audio Coding 3
Расширение режима : CM (complete main)
Параметр Endianness формата : Big
Идентификатор кодека : A_AC3
Продолжительность : 1 ч. 40 м.
Вид битрейта : Постоянный
Битрейт : 192 Кбит/сек
Каналы : 2 канала
Расположение каналов : Front: L R
Частота : 48,0 КГц
Метод сжатия : С потерями
Размер потока : 138 Мбайт (2%)
Заголовок : MVO (Рен ТВ)
Язык : Russian
Default : Да
Forced : Нет

Аудио #2
Идентификатор : 3
Формат : DTS
Формат/Информация : Digital Theater Systems
Режим : 16
Параметр Endianness формата : Big
Идентификатор кодека : A_DTS
Продолжительность : 1 ч. 40 м.
Вид битрейта : Постоянный
Битрейт : 1509 Кбит/сек
Каналы : 2 канала
Расположение каналов : Front: L R
Частота : 48,0 КГц
Битовая глубина : 24 бит
Метод сжатия : С потерями
Размер потока : 1,06 Гбайт (13%)
Заголовок : Original
Язык : English
Default : Нет
Forced : Нет
pb.wtf



Скачать Сад зла через торрент http://s020.radikal.ru/i721/1511/9f/01f51516185a.png Скачать фильм Сад зла через торрент бесплантно в хорошем качестве Описание: В баре мексиканского маленького портового городка «Пуэрто Мигель» из-за вынужденной стоянки парохода, плывущего в США, ... 10 10 3
Info! Золотая раздача, скачанное не засчитывается.
Торрент: Зарегистрирован [2015-11-20 09:57] · скачан: 34 раз
Статус: √ проверено
Размер: 8.07 GB
Как cкачать? Как скачать Сад зла через торрент | qTorrent

% Раздел Тема Автор DL S | L
Фильмы [HD 720p, 1080p] (Хороший звук DUB, MVO) [ 9.65 GB ] Сад зла / Garden of Evil [1954 BDRip 1080p by msltel] MVO msltel Скачать
1 | 0
Фильмы [HD 720p, 1080p] (Хороший звук DUB, MVO) [ 3.34 GB ] Сад зла / Garden of Evil [1954 BDRip 720p by msltel] MVO msltel Скачать
1 | 0
Фильмы до 2000 г. [ 1.54 GB ] Сад зла / Garden of Evil [1954 BDRip AVC by msltel] MVO msltel Скачать
1 | 0

28-11-2019 20:33  

Отключить всю рекламу на сайте

07-12-2015 11:51 Сад зла Скачать торрент  

Хороший старый фильм. pb.wtf



    Дорогой пользователь! Огромная просьба, поблагодарите релизера, оцените раздачу и оставьте свои комментарий, если Вы скачали Сад зла через торрент бесплатно! Внесите свою лепту в развитие PiratBit!
    Комментировать посты могут только пользователи прошедшие не сложную регистрацию
    Показать сообщения:    

    Сад зла через торрент
    Скачать бесплатно Сад зла
    Сад зла скачать торрент
    Сад зла смотреть онлайн
    Cкачать фильм Сад зла бесплатно
    Сад зла скачать торрент в хорошем качестве
    Сад зла смотреть онлайн бесплатно в хорошем качестве


    Вы не можете начинать темы
    Вы не можете отвечать на сообщения
    Вы не можете редактировать свои сообщения
    Вы не можете удалять свои сообщения
    Вы не можете голосовать в опросах
    Вы не можете прикреплять файлы к сообщениям
    Вы можете скачивать файлы