Ссылка на приватное зеркало всего за 1$. Внимание количество ограничено!!!

OK

1+1

iTunes

мы

OK

1

WEB-DLRip

Джокер

Пифагор

Ведьмак / The Witcher сериал

Лицензия

ПШазам

ОК

Оно 2

iTunes

30
pack

Вам бонус

ВАЖНО

!!Акция!!

Alien_RageХит недели

RePack

Resident Evil 21

ИГРА 18+

pack

RePack

jed

!!Акция!!

Alien_Rage

RePack

fifa19

RePack

Assassins Creed: Odyssey

RePack

NEED FOR SPEED™ PAYBACK

4 сезон

9 сезон

Бесстыжие 9 сезон

Все сериалы

все сериалы на PB.wtf

RePack

FAR CRY 5
  

Перерыв на бездумье / Time Out of Mind (Орен Моверман) [2014, драма, HDRip, Любительский (двухголосый)[Parovoz Production] pb.wtf

Перерыв на бездумье через торрент pb.wtf

Размер: 1.45 GB | Добавлен: 4 года 1 мес. назад | Торрент скачан:108 раз
Скачать  

20-11-2015 17:40 Перерыв на бездумье Скачать торрент  


Перерыв на бездумье / Time Out of Mind


ИНФОРМАЦИЯ:
Год выпуска:2014
Страна: США
Жанр: драма
Продолжительность: 02:01:20
Перевод: Любительский (двухголосый)[Parovoz Production]
Режиссер: Орен Моверман

В Ролях:


Джена Мэлоун (Maggie), Ричард Гир (George), Стив Бушеми (Building Manager), Кира Седжвик (Karen / Fake Sheila), Майкл Кеннет Уильямс (Mike), Даниэль Брукс (Receptionist), Брайан Д’Арси Джеймс (Mark), Колман Доминго (Mr. Oyello), Эбигейл Сэвадж (Sabrina), Майкл Бушеми (Frank), Бен Верин (Dixon), Джереми Стронг (Jack)

Описание:
Фильм рассказывает о Джордже - жителе Нью-Йорка, который лишился крыши над головой и был вынужден поселиться в ночлежке. Именно в ее стенах ему и приходится по кускам собирать собственную жизнь и заодно пытаться наладить отношения с дочерью.

  • Мировая премьера:7 сентября 2014

    ТЕХ.ДАННЫЕ:
    Качество: HDRip
    Формат: AVI
    Видео: XviD, 720x304 (2.35:1), 1447 kbps, 23,976 fps, 0,276 bpp
    Аудио: AC3 / 2.0 / 48 kHz / 192 kbps / 16 bit
    Сэмпл

    General
    Complete name : D:\Торенты\5eReR1v.Na.Be3dUm1e.2014.L2.HDRip.1.45GB.avi
    Format : AVI
    Format/Info : Audio Video Interleave
    File size : 1.45 GiB
    Duration : 2h 1mn
    Overall bit rate : 1 716 Kbps

    Video
    ID : 0
    Format : MPEG-4 Visual
    Format profile : Advanced Simple@L5
    Format settings, BVOP : 2
    Format settings, QPel : No
    Format settings, GMC : No warppoints
    Format settings, Matrix : Default (MPEG)
    Codec ID : XVID
    Codec ID/Hint : XviD
    Duration : 2h 1mn
    Bit rate : 1 447 Kbps
    Width : 720 pixels
    Height : 304 pixels
    Display aspect ratio : 2.35:1
    Frame rate : 23.976 fps
    Color space : YUV
    Chroma subsampling : 4:2:0
    Bit depth : 8 bits
    Scan type : Progressive
    Compression mode : Lossy
    Bits/(Pixel*Frame) : 0.276
    Stream size : 1.23 GiB (84%)
    Writing library : XviD 1.2.1 (UTC 2008-12-04)

    Audio
    ID : 1
    Format : AC-3
    Format/Info : Audio Coding 3
    Mode extension : CM (complete main)
    Codec ID : 2000
    Duration : 2h 1mn
    Bit rate mode : Constant
    Bit rate : 192 Kbps
    Channel(s) : 2 channels
    Channel positions : Front: L R
    Sampling rate : 48.0 KHz
    Bit depth : 16 bits
    Compression mode : Lossy
    Stream size : 167 MiB (11%)
    Alignment : Split accross interleaves
    Скриншоты:

    © Оформление by .::Ворон::.
    pb.wtf



  • Скачать Перерыв на бездумье через торрент http://pic.kartinco.top/images/6/ordi9.jpg Скачать фильм Перерыв на бездумье через торрент бесплантно в хорошем качестве Описание: Фильм рассказывает о Джордже - жителе Нью-Йорка, который лишился крыши над головой и был вынужден поселиться в ночлежке. Именно в ... 8.3 10 7
    Торрент: Зарегистрирован [2015-11-20 17:40] · скачан: 108 раз
    Статус: T временная
    Размер: 1.45 GB
    Как cкачать? Как скачать Перерыв на бездумье через торрент | qTorrent

    28-11-2019 20:33  

    Отключить всю рекламу на сайте

      Дорогой пользователь! Огромная просьба, поблагодарите релизера, оцените раздачу и оставьте свои комментарий, если Вы скачали Перерыв на бездумье через торрент бесплатно! Внесите свою лепту в развитие PiratBit!
      Комментировать посты могут только пользователи прошедшие не сложную регистрацию
      Показать сообщения:    

      Перерыв на бездумье через торрент
      Скачать бесплатно Перерыв на бездумье
      Перерыв на бездумье скачать торрент
      Перерыв на бездумье смотреть онлайн
      Cкачать фильм Перерыв на бездумье бесплатно
      Перерыв на бездумье скачать торрент в хорошем качестве
      Перерыв на бездумье смотреть онлайн бесплатно в хорошем качестве


      Вы не можете начинать темы
      Вы не можете отвечать на сообщения
      Вы не можете редактировать свои сообщения
      Вы не можете удалять свои сообщения
      Вы не можете голосовать в опросах
      Вы не можете прикреплять файлы к сообщениям
      Вы можете скачивать файлы