новый адрес
Ссылка на приватное зеркало всего за 1$. Внимание количество ограничено!!!

iTunes

1+1

iTunes

мы

iTunes

1

iTunes

Чернобыль

iTunes

Ральф против интернета

Лицензия

ПШазам

Лицензия

Оно 2

Лицензия

30
pack

Вам бонус

ВАЖНО

!!Акция!!

Alien_RageХит недели

RePack

Resident Evil 21

ИГРА 18+

pack

RePack

jed

!!Акция!!

Alien_Rage

RePack

fifa19

RePack

Assassins Creed: Odyssey

RePack

NEED FOR SPEED™ PAYBACK

3 сезон

9 сезон

Бесстыжие 9 сезон

Все сериалы

все сериалы на PB.wtf

RePack

FAR CRY 5
Ребята, катастрофически не хватает 1900р. для оплаты серверов за Октябрь (всвязи с блокировками трафик упал в 3 раза), 1-2р., выручайте.
  

Чистый, бритый / Clean, Shaven (Лодж Х. Керриган) [1993, драма, криминал, HDRip, Авторский (одноголосый) Алексей Лыдин] pb.wtf

Чистый, бритый через торрент pb.wtf

Размер: 1.46 GB | Добавлен: 4 года назад | Торрент скачан:2 раза
Скачать  

20-11-2015 18:48 Чистый, бритый Скачать торрент  

Чистый, бритый / Clean, Shaven

Год выпуска: 1993
Страна: США
Жанр: драма, криминал
Продолжительность: 01:18:55
Перевод: Авторский (одноголосый) Алексей Лыдин
Режиссер: Лодж Х. Керриган
В ролях:

Питер Грин (Peter Winter), Элис Левитт (Girl with Ball), Меган Оуэн (Mrs. Winter), Дженнифер МакДональд (Nicole), Молли Кастелло (Melinda Frayne), Джилл Чемберлен (Teenager at Motel), Агат Леклерк (Murdered Girl), Роберт Альберт (Jack McNally), Рогет Жоли (Police Photographer), Рене Боудин (Boy on Bicycle), Дж. Диксон Бирн (Dr. Michaels), Элиот Рокетт (Man on Ladder / Man in Jeep)
Описание:
История жизни и смерти молодого шизофреника, отправившегося искать свою дочь, живущую в приемной семье.
Мировая премьера: 5 сентября 1993

Качество: HDRip
Формат: AVI
Видео: XviD, 720x432 (1.667), 2245 kbps, 24 fps, 0,301 bpp
Аудио №1: AC3 / 1 / 48 kHz / 192 kbps / 16 bit (Алексей Лыдин)
Аудио №2: AC3 / 2.0 / 48 kHz / 192 kbps / 16 bit (ENG)

Код:

General
Complete name                            : D:\download\Clean.Shaven_1993.HDRip\Clean.Shaven_1993.HDRip.avi
Format                                   : AVI
Format/Info                              : Audio Video Interleave
File size                                : 1.46 GiB
Duration                                 : 1h 18mn
Overall bit rate                         : 2 644 Kbps
Writing application                      : VirtualDubMod 1.5.10.3 | www.virtualdub-fr.org || (build 2550/release)
Writing library                          : VirtualDubMod build 2550/release

Video
ID                                       : 0
Format                                   : MPEG-4 Visual
Format profile                           : Advanced Simple@L5
Format settings, BVOP                    : 1
Format settings, QPel                    : No
Format settings, GMC                     : No warppoints
Format settings, Matrix                  : Custom
Codec ID                                 : XVID
Codec ID/Hint                            : XviD
Duration                                 : 1h 18mn
Bit rate                                 : 2 246 Kbps
Width                                    : 720 pixels
Height                                   : 432 pixels
Display aspect ratio                     : 1.667
Frame rate                               : 24.000 fps
Color space                              : YUV
Chroma subsampling                       : 4:2:0
Bit depth                                : 8 bits
Scan type                                : Progressive
Compression mode                         : Lossy
Bits/(Pixel*Frame)                       : 0.301
Stream size                              : 1.24 GiB (85%)
Writing library                          : XviD 73

Audio #1
ID                                       : 1
Format                                   : AC-3
Format/Info                              : Audio Coding 3
Mode extension                           : CM (complete main)
Codec ID                                 : 2000
Duration                                 : 1h 18mn
Bit rate mode                            : Constant
Bit rate                                 : 192 Kbps
Channel(s)                               : 1 channel
Channel positions                        : Front: C
Sampling rate                            : 48.0 KHz
Bit depth                                : 16 bits
Compression mode                         : Lossy
Stream size                              : 108 MiB (7%)
Alignment                                : Split accross interleaves
Interleave, duration                     : 42 ms (1.00 video frame)
Interleave, preload duration             : 500 ms

Audio #2
ID                                       : 2
Format                                   : AC-3
Format/Info                              : Audio Coding 3
Mode extension                           : CM (complete main)
Codec ID                                 : 2000
Duration                                 : 1h 18mn
Bit rate mode                            : Constant
Bit rate                                 : 192 Kbps
Channel(s)                               : 2 channels
Channel positions                        : Front: L R
Sampling rate                            : 48.0 KHz
Bit depth                                : 16 bits
Compression mode                         : Lossy
Stream size                              : 108 MiB (7%)
Alignment                                : Split accross interleaves
Interleave, duration                     : 42 ms (1.00 video frame)
Interleave, preload duration             : 500 ms


скриншот  скриншот  скриншот  скриншот  

Сандэнс, 1994 год
Номинации: Гран-при в категории «Драматический фильм»

"Сильная психологическая драма с непредсказуемым финалом..." (с)
pb.wtf



Скачать Чистый, бритый через торрент http://pic1.kartinco.top/images/10/eruh1.jpg Скачать фильм Чистый, бритый через торрент бесплантно в хорошем качестве Описание: История жизни и смерти молодого шизофреника, отправившегося искать свою дочь, живущую в приемной семье.✦ Мировая премьера: 5 ... 10 10 2
Info! Золотая раздача, скачанное не засчитывается.
Торрент: Зарегистрирован [2015-11-20 18:48] · скачан: 2 раз
Статус: √ проверено
Размер: 1.46 GB
Как cкачать? Как скачать Чистый, бритый через торрент | qTorrent

Отключить всю рекламу на сайте
    Дорогой пользователь! Огромная просьба, поблагодарите релизера, оцените раздачу и оставьте свои комментарий, если Вы скачали Чистый, бритый через торрент бесплатно! Внесите свою лепту в развитие PiratBit!
    Комментировать посты могут только пользователи прошедшие не сложную регистрацию
    Показать сообщения:    

    Чистый, бритый через торрент
    Скачать бесплатно Чистый, бритый
    Чистый, бритый скачать торрент
    Чистый, бритый смотреть онлайн
    Cкачать фильм Чистый, бритый бесплатно
    Чистый, бритый скачать торрент в хорошем качестве
    Чистый, бритый смотреть онлайн бесплатно в хорошем качестве


    Вы не можете начинать темы
    Вы не можете отвечать на сообщения
    Вы не можете редактировать свои сообщения
    Вы не можете удалять свои сообщения
    Вы не можете голосовать в опросах
    Вы не можете прикреплять файлы к сообщениям
    Вы можете скачивать файлы