Ссылка на приватное зеркало всего за 1$. Внимание количество ограничено!!!

OK

1+1

iTunes

мы

OK

1

WEB-DLRip

Джокер

Пифагор

Ведьмак / The Witcher сериал

iTunes

ПШазам

ОК

Оно 2

iTunes

30
pack

Вам бонус

ВАЖНО

!!Акция!!

Alien_RageХит недели

RePack

Resident Evil 21

ИГРА 18+

pack

RePack

jed

RePack

fifa19

RePack

Assassins Creed: Odyssey

RePack

NEED FOR SPEED™ PAYBACK

4 сезон

9 сезон

Бесстыжие 9 сезон

Все сериалы

все сериалы на PB.wtf

RePack

FAR CRY 5
  

Бегущий в лабиринте: Испытание огнём / Maze Runner: The Scorch Trials (Уэс Болл) [2015 г., фантастика, боевик, триллер, HDRip by Dean24] (Дубляж Лицензия) pb.wtf

Бегущий в лабиринте: Испытание огнём через торрент pb.wtf

Размер: 2.19 GB | Добавлен: 4 года 2 мес. назад | Торрент скачан:717 раз
Скачать  

20-11-2015 20:38 Бегущий в лабиринте: Испытание огнём Скачать торрент  

Бегущий в лабиринте: Испытание огнём / Maze Runner: The Scorch TrialsГод выпуска: 2015
Страна: США
Жанр: фантастика, боевик, триллер
Продолжительность: 131 мин. / 02:11
Перевод: Дубляж | Лицензия
Субтитры: Нет

Режиссер: Уэс Болл
Продюссер: Марти Бауэн, Вик Годфри, Эллен Голдсмит-Вейн
Сценарий: Т.С. Наулин, Джеймс Дашнер

Бюджет: $61 000 000
Премьера в мире: 1 сентября 2015



В ролях: Дилан О’Брайен, Кая Скоделарио, Ки Хонг Ли, Томас Сэнгстер, Декстер Дарден, Алекс Дж. Флорес, Джейкоб Лофленд, Роза Салазар, Джанкарло Эспозито, Патришия Кларксон

Описание: Лабиринт пройден, но Томасу, Терезе, Минхо и прочим глэйдерам не приходится расслабляться. Таинственное руководство ПОРОКА — секретной организации, устроившей гонки на выживание — назначает ребятам новые, смертельно опасные испытания. На сей раз их ждет переход по раскаленной пустыне и встреча с жертвами неизлечимой болезни, которые отличаются буйным нравом и непредсказуемым поведением.

Качество: HDRip | BDRip 720p
Формат: AVI
Видео кодек: XviD
Аудио кодек: AC3
Видео: 720x304 (2.37:1), 23.976 fps, XviD build 50 ~1984 kbps avg, 0.38 bit/pixel
Аудио: 48 kHz, AC3 Dolby Digital, 3/2 (L,C,R,l,r) + LFE ch, ~384 kbps



Автор рипа: Dean24
|
Общее
Полное имя : D:\Мои документы\Фильмы\Сайт\Maze.Runner.The.Scorch.Trials.HDRip.avi
Формат : AVI
Формат/Информация : Audio Video Interleave
Профиль формата : OpenDML
Размер файла : 2,19 Гбайт
Продолжительность : 2 ч. 11 м.
Общий поток : 2375 Кбит/сек
Программа кодирования : VirtualDubMod 1.5.10.3 | www.virtualdub-fr.org || (build 2550/release)
Библиотека кодирования : VirtualDubMod build 2550/release

Видео
Идентификатор : 0
Формат : MPEG-4 Visual
Профиль формата : Advanced Simple@L5
Параметр BVOP формата : 3
Параметр QPel формата : Нет
Параметр GMC формата : Без точки перехода
Параметр матрицы формата : Default (H.263)
Идентификатор кодека : XVID
Идентификатор кодека/Подсказка : XviD
Продолжительность : 2 ч. 11 м.
Битрейт : 1980 Кбит/сек
Ширина : 720 пикселей
Высота : 304 пикселя
Соотношение сторон : 2,35:1
Частота кадров : 23,976 кадра/сек
Цветовое пространство : YUV
Субдискретизация насыщенности : 4:2:0
Битовая глубина : 8 бит
Тип развёртки : Прогрессивная
Метод сжатия : С потерями
Бит/(Пиксели*Кадры) : 0.377
Размер потока : 1,82 Гбайт (83%)
Библиотека кодирования : XviD 1.2.1 (UTC 2008-12-04)

Аудио
Идентификатор : 1
Формат : AC-3
Формат/Информация : Audio Coding 3
Расширение режима : CM (complete main)
Параметр Endianness формата : Big
Идентификатор кодека : 2000
Продолжительность : 2 ч. 11 м.
Вид битрейта : Постоянный
Битрейт : 384 Кбит/сек
Каналы : 6 каналов
Расположение каналов : Front: L C R, Side: L R, LFE
Частота : 48,0 КГц
Битовая глубина : 16 бит
Метод сжатия : С потерями
Размер потока : 362 Мбайт (16%)
Выравнивание : Разделение по промежуткам
Продолжительность промежутка : 42 мс. (1,00 видеокадр)
Время предзагрузки промежутка : 500 мс.

pb.wtf



Скачать Бегущий в лабиринте: Испытание огнём через торрент http://i75.fastpic.ru/big/2015/1120/5b/3fcbbf1958dd164a674991f7dac8765b.png Скачать фильм Бегущий в лабиринте: Испытание огнём через торрент бесплантно в хорошем качестве Описание: Лабиринт пройден, но Томасу, Терезе, Минхо и прочим глэйдерам не приходится расслабляться. Таинственное руководство ПОРОКА — ... 9.8 10 15
Info! Золотая раздача, скачанное не засчитывается.
Торрент: Зарегистрирован [2015-11-20 20:38] · скачан: 717 раз
Статус: √ проверено
Размер: 2.19 GB
Как cкачать? Как скачать Бегущий в лабиринте: Испытание огнём через торрент | qTorrent

% Раздел Тема Автор DL S | L
Фильмы [HD 720p, 1080p] (Хороший звук DUB, MVO) [ 5.27 GB ] Бегущий в лабиринте: Испытание огнём / Maze Runner: The Scorch Trials [2015 BDRip 1080p HEVC ()] Мичман37 Скачать
1 | 0
Ultra HD (UHD: 2K, 4K, 8K) — видео сверхвысокой чёткости [ 46.97 GB ] Бегущий в лабиринте: Испытание огнём / Maze Runner: The Scorch Trials [2015 UHD BDRemux 2160p] DUB [] bober100 Скачать
1 | 0
Фильмы (BDRip, HDrip-AVC) (48-60 fps) [ 3.66 GB ] Бегущий в лабиринте: Испытание огнём / Maze Runner: The Scorch Trials [2015 BDRip-AVC 60 fps от R.G. Resident] - [] -Lexx- Скачать
3 | 0
Фильмы 2015 [DVDrip, WEB-DLRip, HDrip] [ 1.46 GB ] Бегущий в лабиринте: Испытание огнём / Maze Runner: The Scorch Trials [2015 BDRip] DUB Twi7ter Скачать
1 | 0
Фильмы (DVD фильмы) [ 7.48 GB ] Бегущий в лабиринте: Испытание огнём / Maze Runner: The Scorch Trials [2015 DVD9] R5 voovaz Скачать
1 | 0
Фильмы [HD 720p, 1080p] (Хороший звук DUB, MVO) [ 7.73 GB ] Бегущий в лабиринте: Испытание огнём / Maze Runner: The Scorch Trials [2015 BDRip 1080p от еnvy / NNNB] DUB еnvy Скачать
1 | 0
Фильмы 2015 [DVDrip, WEB-DLRip, HDrip] [ 1.46 GB ] Бегущий в лабиринте: Испытание огнём / Maze Runner: The Scorch Trials [2015 BDRip-AVC от sokol_ok] DUB sokol_ok Скачать
1 | 0

28-11-2019 20:33  

Отключить всю рекламу на сайте

21-11-2015 03:07 Бегущий в лабиринте: Испытание огнём Скачать торрент  

не уходите с раздачи!!! 70,8%pb.wtf



    Дорогой пользователь! Огромная просьба, поблагодарите релизера, оцените раздачу и оставьте свои комментарий, если Вы скачали Бегущий в лабиринте: Испытание огнём через торрент бесплатно! Внесите свою лепту в развитие PiratBit!
    Комментировать посты могут только пользователи прошедшие не сложную регистрацию
    Показать сообщения:    

    Бегущий в лабиринте: Испытание огнём через торрент
    Скачать бесплатно Бегущий в лабиринте: Испытание огнём
    Бегущий в лабиринте: Испытание огнём скачать торрент
    Бегущий в лабиринте: Испытание огнём смотреть онлайн
    Cкачать фильм Бегущий в лабиринте: Испытание огнём бесплатно
    Бегущий в лабиринте: Испытание огнём скачать торрент в хорошем качестве
    Бегущий в лабиринте: Испытание огнём смотреть онлайн бесплатно в хорошем качестве


    Вы не можете начинать темы
    Вы не можете отвечать на сообщения
    Вы не можете редактировать свои сообщения
    Вы не можете удалять свои сообщения
    Вы не можете голосовать в опросах
    Вы не можете прикреплять файлы к сообщениям
    Вы можете скачивать файлы