Ссылка на приватное зеркало нашего сайта всего за 1$. Внимание количество ограничено!!!

2 сезон

iTunes

1 сезон

1

iTunes

iTunes

iTunes

1 сезон

RePack

30

ИГРА 18+

pack

ВАЖНО

!!Акция!!

Alien_RageХит недели

RePack

MK11
pack

Забери бонус

RePack

jed

!!Акция!!

Alien_Rage

RePack

fifa19

RePack

Assassins Creed: Odyssey

RePack

NEED FOR SPEED™ PAYBACK

4 сезон

9 сезон

Бесстыжие 9 сезон

Все сериалы

все сериалы на PB.wtf

RePack

FAR CRY 5
  

Без изъяна / Flawless (Джоэл Шумахер ) [1999, драма, комедия, криминал, BDRip 720p от _denis_100 / NNNB] DUB, 2xAVO pb.wtf

Без изъяна через торрент pb.wtf

Размер: 5.76 GB | Добавлен: 4 года 11 мес. назад | Торрент скачан:47 раз
Скачать  

21-11-2015 10:58 Без изъяна Скачать торрент  

Без изъяна / Flawless
«They couldn't like each other less or need each other more»


Год выпуска: 1999
Страна: США
Жанр: драма, комедия, криминал
Продолжительность: 01:50:49
Перевод: Профессиональный (двухголосый), Авторский (одноголосый),

Режиссер: Джоэл Шумахер
В ролях: Роберт Де Ниро , Филип Сеймур Хоффман , Бэрри Миллер , Кристофер Бауэр , Скипп Саддат , Уилсон Жермен Эредия , Нашом Бенжамин , Скотт Аллен Купер , Рори Кокрейн , Дафна Рубин-Вега , Винсент Лареска , Карина Арройяве
Описание:
Иногда судьба любит шутить. Уолт - бывший страж порядка, подвижный здоровяк, герой района и примерный гражданин, приятный во всех отношениях мужчина «без изъяна» - живет по соседству с постоянно музицирующим трансвеститом Расти.
Взаимная неприязнь и полное непонимание могли бы длиться вечно, если бы однажды Уолт не попал в беду. Теперь, жалкий калека, прикованный к кровати, он почти потерял надежду на выздоровление.
Но его странный сосед все еще не забыл о сострадании несмотря на наркотики, выпивку и разврат. Маргинал и отщепенец, не мужчина и не женщина, однако Человек, Расти своими уроками пения дает Уолту уроки жизнестойкости, и, обретая голос, тот обретает силы жить.

R - Лицам до 17 лет обязательно присутствие взрослого
Качество: BDRip 720p
Контейнер (Расширение): MKV
Видео: 1280x700, 5840 Кбит/сек, 23,976 кадр/сек, 0,272 Бит/[Пиксели*Кадры]
Аудио №1: русский / AC3 / 5.1 / 48 kHz / 384 kbps / 16 bit |Профессиональный (двухголосый)|
Аудио №2: русский / AC3 / 5.1 / 48 kHz / 384 kbps / 16 bit |Авторский, Сергей Визгунов|
Аудио №3: русский / AC3 / 2.0 / 48 kHz / 192 kbps / 16 bit |Авторский, Юрий Сербин|
Аудио №4: английский / AC3 / 5.1 / 48 kHz / 640 kbps / 16 bitАвтор рипа: Сообщество:

Код:

Format                                   : Matroska
Format version                           : Version 2
File size                                : 5.76 GiB
Duration                                 : 1h 50mn
Overall bit rate                         : 7 439 Kbps
Movie name                               : Flawless.(1999).BDRip.720p.[denis100]
Encoded date                             : UTC 2015-11-20 13:45:40
Writing application                      : mkvmerge v5.8.0 ('No Sleep / Pillow') built on Sep  2 2012 15:37:04
Writing library                          : libebml v1.2.3 + libmatroska v1.3.0

Video
ID                                       : 1
Format                                   : AVC
Format/Info                              : Advanced Video Codec
Format profile                           : High@L4.1
Format settings, CABAC                   : Yes
Format settings, ReFrames                : 9 frames
Codec ID                                 : V_MPEG4/ISO/AVC
Duration                                 : 1h 50mn
Bit rate                                 : 5 840 Kbps
Width                                    : 1 280 pixels
Height                                   : 700 pixels
Display aspect ratio                     : 16:9
Frame rate                               : 23.976 fps
Color space                              : YUV
Chroma subsampling                       : 4:2:0
Bit depth                                : 8 bits
Scan type                                : Progressive
Bits/(Pixel*Frame)                       : 0.272
Stream size                              : 4.40 GiB (77%)
Title                                    : Flawless.(1999).BDRip.720p.[denis100]
Writing library                          : x264 core 148 r2638 7599210
Encoding settings                        : cabac=1 / ref=9 / deblock=1:-3:-3 / analyse=0x3:0x133 / me=umh / subme=11 / psy=1 / psy_rd=1.00:0.05 / mixed_ref=1 / me_range=32 / chroma_me=1 / trellis=2 / 8x8dct=1 / cqm=0 / deadzone=21,11 / fast_pskip=0 / chroma_qp_offset=-3 / threads=6 / lookahead_threads=1 / sliced_threads=0 / nr=0 / decimate=1 / interlaced=0 / bluray_compat=0 / constrained_intra=0 / bframes=10 / b_pyramid=2 / b_adapt=2 / b_bias=0 / direct=3 / weightb=1 / open_gop=0 / weightp=2 / keyint=240 / keyint_min=23 / scenecut=40 / intra_refresh=0 / rc=2pass / mbtree=0 / bitrate=5840 / ratetol=1.0 / qcomp=0.60 / qpmin=0 / qpmax=69 / qpstep=4 / cplxblur=20.0 / qblur=0.5 / ip_ratio=1.40 / pb_ratio=1.30 / aq=1:0.80
Language                                 : English
Default                                  : Yes
Forced                                   : No

Audio #1
ID                                       : 2
Format                                   : AC-3
Format/Info                              : Audio Coding 3
Mode extension                           : CM (complete main)
Codec ID                                 : A_AC3
Duration                                 : 1h 50mn
Bit rate mode                            : Constant
Bit rate                                 : 384 Kbps
Channel(s)                               : 6 channels
Channel positions                        : Front: L C R, Side: L R, LFE
Sampling rate                            : 48.0 KHz
Bit depth                                : 16 bits
Compression mode                         : Lossy
Stream size                              : 304 MiB (5%)
Title                                    : Двухголосый, закадровый
Language                                 : Russian
Default                                  : Yes
Forced                                   : No

Audio #2
ID                                       : 3
Format                                   : AC-3
Format/Info                              : Audio Coding 3
Mode extension                           : CM (complete main)
Codec ID                                 : A_AC3
Duration                                 : 1h 50mn
Bit rate mode                            : Constant
Bit rate                                 : 384 Kbps
Channel(s)                               : 6 channels
Channel positions                        : Front: L C R, Side: L R, LFE
Sampling rate                            : 48.0 KHz
Bit depth                                : 16 bits
Compression mode                         : Lossy
Stream size                              : 304 MiB (5%)
Title                                    : Авторский, Сергей Визгунов
Language                                 : Russian
Default                                  : No
Forced                                   : No

Audio #3
ID                                       : 4
Format                                   : AC-3
Format/Info                              : Audio Coding 3
Mode extension                           : CM (complete main)
Codec ID                                 : A_AC3
Duration                                 : 1h 50mn
Bit rate mode                            : Constant
Bit rate                                 : 192 Kbps
Channel(s)                               : 2 channels
Channel positions                        : Front: L R
Sampling rate                            : 48.0 KHz
Bit depth                                : 16 bits
Compression mode                         : Lossy
Stream size                              : 152 MiB (3%)
Title                                    : Авторский, Юрий Сербин
Language                                 : Russian
Default                                  : No
Forced                                   : No

Audio #4
ID                                       : 5
Format                                   : AC-3
Format/Info                              : Audio Coding 3
Mode extension                           : CM (complete main)
Codec ID                                 : A_AC3
Duration                                 : 1h 50mn
Bit rate mode                            : Constant
Bit rate                                 : 640 Kbps
Channel(s)                               : 6 channels
Channel positions                        : Front: L C R, Side: L R, LFE
Sampling rate                            : 48.0 KHz
Bit depth                                : 16 bits
Compression mode                         : Lossy
Stream size                              : 507 MiB (9%)
Language                                 : English
Default                                  : No
Forced                                   : No

x264 [info]: frame I:910 Avg QP:14.99 size:120132
x264 [info]: frame P:32821 Avg QP:17.34 size: 51199
x264 [info]: frame B:125686 Avg QP:19.64 size: 24354
pb.wtf



Скачать Без изъяна через торрент http://i67.fastpic.ru/big/2015/1121/03/82ba3e51cb523b2ed111983b3c251b03.png Скачать фильм Без изъяна через торрент бесплантно в хорошем качестве Описание:Иногда судьба любит шутить. Уолт - бывший страж порядка, подвижный здоровяк, герой района и примерный гражданин, приятный во всех ... 10 10 3
Info! Золотая раздача, скачанное не засчитывается.
Торрент: Зарегистрирован [2015-11-21 10:58] · скачан: 47 раз
Статус: √ проверено
Размер: 5.76 GB
Как cкачать? Как скачать Без изъяна через торрент | qTorrent

% Раздел Тема Автор DL S | L
Фильмы [HD 720p, 1080p] (Хороший звук DUB, MVO) [ 11.55 GB ] Без изъяна / Flawless [1999 BDRip 1080p от _denis_100 / NNNB] DUB 2xAVO _denis_100 Скачать
1 | 0

28-11-2019 20:33  

Отключить всю рекламу на сайте

    Дорогой пользователь! Огромная просьба, поблагодарите релизера, оцените раздачу и оставьте свои комментарий, если Вы скачали Без изъяна через торрент бесплатно! Внесите свою лепту в развитие PiratBit!
    Комментировать посты могут только пользователи прошедшие не сложную регистрацию
    Показать сообщения:    

    Без изъяна через торрент
    Скачать бесплатно Без изъяна
    Без изъяна скачать торрент
    Без изъяна смотреть онлайн
    Cкачать фильм Без изъяна бесплатно
    Без изъяна скачать торрент в хорошем качестве
    Без изъяна смотреть онлайн бесплатно в хорошем качестве


    Вы не можете начинать темы
    Вы не можете отвечать на сообщения
    Вы не можете редактировать свои сообщения
    Вы не можете удалять свои сообщения
    Вы не можете голосовать в опросах
    Вы не можете прикреплять файлы к сообщениям
    Вы можете скачивать файлы