Мега распродажа FORZA HORIZON 4 ULTIMATE+ВСЕ DLC+ОНЛАЙН всего за 499р. 349 руб. (супер цена). Внимание количество ограничено!!!

Лицензия

30

iTunes

мы

iTunes

1

1 сезон

Чернобыль

1 сезон

Ральф против интернета

MVO

Покемон. Детектив Пикачу

8 сезон

Игра престолов

iTunes

1+1

ИГРА 18+

pack

ВАЖНО

!!Акция!!

Alien_RageХит недели

RePack

Resident Evil 21
pack

RePack

Metro:Exodus

!!Акция!!

Alien_Rage

RePack

fifa19

RePack

Assassins Creed: Odyssey

RePack

NEED FOR SPEED™ PAYBACK

3 сезон

9 сезон

Бесстыжие 9 сезон

Все сериалы

все сериалы на PB.wtf

RePack

FAR CRY 5
Ребята, катастрофически не хватает 2730р. для оплаты серверов за МАЙ (всвязи с блокировками трафик упал в 3 раза), 1-2р., выручайте.
  

Семейка Джонсов / The Joneses (Деррик Борте) [2009, драма, мелодрама, комедия, BDRip AVC by msltel] DUB pb.wtf

Семейка Джонсов через торрент pb.wtf

Размер: 1.96 GB | Добавлен: 3 года 6 мес. назад | Торрент скачан:66 раз
Скачать  

21-11-2015 11:22 Семейка Джонсов Скачать торрент  

Название: Семейка Джонсов
Оригинальное название: The Joneses
Год выпуска: 2009
Страна: США
Жанр: драма, мелодрама, комедия
Продолжительность: 01:35:50
Перевод: дублированный

Режиссёр: Деррик Борте

В ролях: Эмбер Хёрд, Деми Мур, Дэвид Духовны, Гэри Коул, Гленн Хедли, Лорен Хаттон, Крис Уильямс, Катрин Дайер, Кристин Евангелиста, Роберт Пралго, Марк Оливер, Ким Уолл, Уилбур Фицджералд

Описание: Образцово-показательная во всех отношениях семья Джонсов поселяется в маленьком городке и сразу становится кумирами и любимчиками всех его жителей. Вот на кого хотят быть похожими все от мала до велика! Но на самом деле Джонсы — не супруги, и их дети — не настоящие. Нет, они не шпионы и не инопланетяне. Все они просто сотрудники маркетинговой компании, нанятые и засланные в городок, чтобы рекламировать нестандартными методами «идеальный» образ жизни, а заодно и миллион товаров! Но со временем Джонсы начинают обнаруживать, что их работёнка не такая простая, как казалось, а горожане — что Джонсы не такие уж идеальные, и у каждого из них найдётся какой-нибудь тайный порок...



Качество: BDRip AVC Сравнение с исходником
Формат: MKV
Видео: MPEG-4 AVC, 1969 Кбит/с, 1024x430, 23,976 кадра/с
Аудио 1: русский, AC3, 448 kbps, 6 ch, 48 kHz [дублированный]
Аудио 2: английский, AC3, 448 kbps, 6 ch, 48 kHz [оригинал]
Субтитры: английские
Общее
Уникальный идентификатор : 223520121407244318321458669423148914840 (0xA82868D4EF53783098249AC2FF43D898)
Полное имя : D:VideoСемейка Джонсов.2009.BDRip.AVC.mkv
Формат : Matroska
Версия формата : Version 4 / Version 2
Размер файла : 1,96 Гбайт
Продолжительность : 1 ч. 35 м.
Общий поток : 2923 Кбит/сек
Название фильма : BDRip -- STarankov
Дата кодирования : UTC 2015-11-20 08:22:32
Программа кодирования : mkvmerge v8.2.0 ('World of Adventure') 64bit
Библиотека кодирования : libebml v1.3.1 + libmatroska v1.4.2
DURATION : 01:35:50.816000000
NUMBER_OF_FRAMES : 179713
NUMBER_OF_BYTES : 322045696
_STATISTICS_WRITING_APP : mkvmerge v8.2.0 ('World of Adventure') 64bit
_STATISTICS_WRITING_DATE_UTC : 2015-11-20 08:22:32
_STATISTICS_TAGS : BPS DURATION NUMBER_OF_FRAMES NUMBER_OF_BYTES

Видео
Идентификатор : 1
Формат : AVC
Формат/Информация : Advanced Video Codec
Профиль формата : High@L4.1
Параметр CABAC формата : Да
Параметр ReFrames формата : 9 кадров
Идентификатор кодека : V_MPEG4/ISO/AVC
Продолжительность : 1 ч. 35 м.
Битрейт : 1969 Кбит/сек
Ширина : 1024 пикселя
Высота : 430 пикселей
Соотношение сторон : 2,40:1
Режим частоты кадров : Постоянный
Частота кадров : 23,976 кадра/сек
Цветовое пространство : YUV
Субдискретизация насыщенности : 4:2:0
Битовая глубина : 8 бит
Тип развёртки : Прогрессивная
Бит/(Пиксели*Кадры) : 0.187
Размер потока : 1,32 Гбайт (67%)
Библиотека кодирования : x264 core 146 r2538 121396c
Настройки программы : cabac=1 / ref=9 / deblock=1:-1:-1 / analyse=0x3:0x113 / me=umh / subme=10 / psy=1 / psy_rd=1.00:0.15 / mixed_ref=1 / me_range=32 / chroma_me=1 / trellis=2 / 8x8dct=1 / cqm=0 / deadzone=21,11 / fast_pskip=1 / chroma_qp_offset=-3 / threads=6 / lookahead_threads=1 / sliced_threads=0 / nr=0 / decimate=1 / interlaced=0 / bluray_compat=0 / constrained_intra=0 / bframes=9 / b_pyramid=2 / b_adapt=2 / b_bias=0 / direct=1 / weightb=1 / open_gop=0 / weightp=2 / keyint=230 / keyint_min=23 / scenecut=40 / intra_refresh=0 / rc_lookahead=40 / rc=crf / mbtree=0 / crf=19.2 / qcomp=0.60 / qpmin=0 / qpmax=69 / qpstep=4 / vbv_maxrate=40000 / vbv_bufsize=50000 / crf_max=0.0 / nal_hrd=none / filler=0 / ip_ratio=1.40 / pb_ratio=1.30 / aq=1:1.00
Язык : English
Default : Да
Forced : Нет
DURATION : 01:35:50.787000000
NUMBER_OF_FRAMES : 137881
NUMBER_OF_BYTES : 1455861121
_STATISTICS_WRITING_APP : mkvmerge v8.2.0 ('World of Adventure') 64bit
_STATISTICS_WRITING_DATE_UTC : 2015-11-20 08:22:32
_STATISTICS_TAGS : BPS DURATION NUMBER_OF_FRAMES NUMBER_OF_BYTES

Аудио #1
Идентификатор : 2
Формат : AC-3
Формат/Информация : Audio Coding 3
Расширение режима : CM (complete main)
Параметр Endianness формата : Big
Идентификатор кодека : A_AC3
Продолжительность : 1 ч. 35 м.
Вид битрейта : Постоянный
Битрейт : 448 Кбит/сек
Каналы : 6 каналов
Расположение каналов : Front: L C R, Side: L R, LFE
Частота : 48,0 КГц
Метод сжатия : С потерями
Размер потока : 307 Мбайт (15%)
Заголовок : DUB
Язык : Russian
Default : Да
Forced : Нет

Аудио #2
Идентификатор : 3
Формат : AC-3
Формат/Информация : Audio Coding 3
Расширение режима : CM (complete main)
Параметр Endianness формата : Big
Идентификатор кодека : A_AC3
Продолжительность : 1 ч. 35 м.
Вид битрейта : Постоянный
Битрейт : 448 Кбит/сек
Каналы : 6 каналов
Расположение каналов : Front: L C R, Side: L R, LFE
Частота : 48,0 КГц
Метод сжатия : С потерями
Размер потока : 307 Мбайт (15%)
Заголовок : Original
Язык : English
Default : Нет
Forced : Нет

Текст
Идентификатор : 4
Формат : UTF-8
Идентификатор кодека : S_TEXT/UTF8
Идентификатор кодека/Информация : UTF-8 Plain Text
Заголовок : английский
Язык : English
Default : Нет
Forced : Нет
pb.wtf



Скачать Семейка Джонсов через торрент http://s020.radikal.ru/i710/1511/f0/f151df1c434f.png Скачать фильм Семейка Джонсов через торрент бесплантно в хорошем качестве Описание: Образцово-показательная во всех отношениях семья Джонсов поселяется в маленьком городке и сразу становится кумирами и любимчиками ... 10 10 4
Info! Серебряная раздача, засчитывается только 50% скачанного.
Торрент: Зарегистрирован [2015-11-21 11:22] · скачан: 66 раз
Статус: √ проверено
Размер: 1.96 GB
Как cкачать? Как скачать Семейка Джонсов через торрент | qTorrent

% Раздел Тема Автор DL S | L
Фильмы [HD 720p, 1080p] (Хороший звук DUB, MVO) [ 9.84 GB ] Семейка Джонсов / The Joneses [2009 BDRip 1080p by msltel] DUB msltel Скачать
1 | 0
Фильмы [HD 720p, 1080p] (Хороший звук DUB, MVO) [ 3.26 GB ] Семейка Джонсов / The Joneses [2009 BDRip 720p by msltel] DUB msltel Скачать
1 | 0
Фильмы [HD 720p, 1080p] (Хороший звук DUB, MVO) [ 6.85 GB ] Семейка Джонсов / The Joneses [2009 BDRip 1080p] DUB Shmel Скачать
1 | 0


>> Регистрируемся здесь <<






Отзывы и комментарии о схеме читаем и пишем здесь: ---> Отзывы и комментарии о схеме

Новые благодарочки в телеграм довольных пользователей:
скриншот   скриншот   скриншот   скриншот   скриншот
    Дорогой пользователь! Огромная просьба, поблагодарите релизера, оцените раздачу и оставьте свои комментарий, если Вы скачали Семейка Джонсов через торрент бесплатно! Внесите свою лепту в развитие PiratBit!
    Комментировать посты могут только пользователи прошедшие не сложную регистрацию
    Показать сообщения:    

    Семейка Джонсов через торрент
    Скачать бесплатно Семейка Джонсов
    Семейка Джонсов скачать торрент
    Семейка Джонсов смотреть онлайн
    Cкачать фильм Семейка Джонсов бесплатно
    Семейка Джонсов скачать торрент в хорошем качестве
    Семейка Джонсов смотреть онлайн бесплатно в хорошем качестве


    Вы не можете начинать темы
    Вы не можете отвечать на сообщения
    Вы не можете редактировать свои сообщения
    Вы не можете удалять свои сообщения
    Вы не можете голосовать в опросах
    Вы не можете прикреплять файлы к сообщениям
    Вы можете скачивать файлы