Ссылка на приватное зеркало всего за 1$. Внимание количество ограничено!!!

OK

1+1

iTunes

мы

OK

1

WEB-DLRip

Джокер

Пифагор

Ведьмак / The Witcher сериал

iTunes

ПШазам

ОК

Оно 2

iTunes

30
pack

Вам бонус

ВАЖНО

!!Акция!!

Alien_RageХит недели

RePack

Resident Evil 21

ИГРА 18+

pack

RePack

jed

RePack

fifa19

RePack

Assassins Creed: Odyssey

RePack

NEED FOR SPEED™ PAYBACK

4 сезон

9 сезон

Бесстыжие 9 сезон

Все сериалы

все сериалы на PB.wtf

RePack

FAR CRY 5
  

Любовь и милосердие / Love & Mercy (Уильям Полад / Bill Pohlad) [2015, драма, биография, музыка, BDRip-AVC от potroks] Dub [iTunes] pb.wtf

Любовь и милосердие через торрент pb.wtf

Размер: 2.86 GB | Добавлен: 4 года 2 мес. назад | Торрент скачан:105 раз
Скачать  

21-11-2015 18:31 Любовь и милосердие Скачать торрент  

Любовь и милосердие / Love & Mercy
«The Life, Love and Genius of Brian Wilson»
Год выпуска: 2015
Страна: США / Battle Mountain Films, River Road Entertainment
Жанр: драма, биография, музыка
Продолжительность: 02:01:33
Перевод: Дубляж [iTunes]
Субтитры: русские, английские (Full), английские (SDH),
Навигация по главам: есть
Режиссер: Уильям Полад / Bill Pohlad
В ролях:

Элизабет Бэнкс (Melinda Ledbetter), Джон Кьюсак (Brian - Future), Грэхэм Роджерс (Al Jardine), Пол Дано (Brian - Past), Пол Джаматти (Dr. Eugene Landy), Джоэнна Гоуинг (Audree Wilson), Ник Гелфусс (Bruce Johnston), Джейк Эйбел (Mike Love), Эрин Майя Дарк (Marilyn Wilson), Кенни Вормолд (Dennis Wilson), Тайсон Риттер (Hipster #1), Бретт Даверн (Carl Wilson)
Описание: История затворнического автора песен Beach Boys и музыканта Брайана Уилсона, от его успехов с чрезвычайно влиятельными оркестровыми популярными альбомами к его нервному срыву и последующему столкновению с врачом, доктором Юджином Лэнди.

Качество: BDRip-AVC
Формат: MKV
Видео кодек: AVC
Аудио кодек: AC3
Видео: 1024x576 (16:9), 2531 kbps, 23,976 fps, 0,179 bit/pixel
Аудио №1: AC3 / 5.1 / 48 kHz / 384 kbps / 16 bit | RUS
Аудио №2: AC3 / 5.1 / 48 kHz / 448 kbps / 16 bit | ENG

Релиз группы:
Автор рипа: potroks

Код:

General
Unique ID                   : 247999656223821622141061128747968712175 (0xBA92FF14DA010D37BE9B53D944114DEF)
Complete name               : Lubov'.&.Miloserdiye.2015.DUAL.BDRip.x264.-HELLYWOOD.mkv
Format                      : Matroska
Format version              : Version 4 / Version 2
File size                   : 2.86 GiB
Duration                    : 2h 1mn
Overall bit rate            : 3 364 Kbps
Movie name                  : Love & Mercy (2015) - HELLYWOOD
Encoded date                : UTC 2010-02-22 21:41:31
Writing application         : mkvmerge v5.8.0 ('No Sleep / Pillow') built on Sep 30 2012 10:57:14
Writing library             : libebml v1.3.0 + libmatroska v1.4.0

Video
ID                          : 1
Format                      : AVC
Format/Info                 : Advanced Video Codec
Format profile              : High@L4.1
Format settings, CABAC      : Yes
Format settings, ReFrames   : 12 frames
Codec ID                    : V_MPEG4/ISO/AVC
Duration                    : 2h 1mn
Bit rate                    : 2 531 Kbps
Width                       : 1 024 pixels
Height                      : 576 pixels
Display aspect ratio        : 16:9
Frame rate mode             : Constant
Frame rate                  : 23.976 fps
Color space                 : YUV
Chroma subsampling          : 4:2:0
Bit depth                   : 8 bits
Scan type                   : Progressive
Bits/(Pixel*Frame)          : 0.179
Stream size                 : 2.09 GiB (73%)
Title                       : potroks
Writing library             : x264 core 148 r2597M e86f3a1
Encoding settings           : cabac=1 / ref=12 / deblock=1:-3:-3 / analyse=0x3:0x133 / me=umh / subme=11 / psy=1 / psy_rd=0.90:0.00 / mixed_ref=1 / me_range=48 / chroma_me=1 / trellis=2 / 8x8dct=1 / cqm=0 / deadzone=21,11 / fast_pskip=0 / chroma_qp_offset=-2 / threads=10 / lookahead_threads=2 / sliced_threads=0 / nr=0 / decimate=1 / interlaced=0 / bluray_compat=0 / constrained_intra=0 / bframes=13 / b_pyramid=2 / b_adapt=2 / b_bias=0 / direct=3 / weightb=1 / open_gop=0 / weightp=2 / keyint=250 / keyint_min=23 / scenecut=40 / intra_refresh=0 / rc=2pass / mbtree=0 / bitrate=2531 / ratetol=1.0 / qcomp=0.70 / qpmin=0 / qpmax=69 / qpstep=4 / cplxblur=20.0 / qblur=0.5 / ip_ratio=1.40 / pb_ratio=1.30 / aq=1:0.90
Language                    : English
Default                     : Yes
Forced                      : No

Audio #1
ID                          : 2
Format                      : AC-3
Format/Info                 : Audio Coding 3
Mode extension              : CM (complete main)
Format settings, Endianness : Big
Codec ID                    : A_AC3
Duration                    : 2h 1mn
Bit rate mode               : Constant
Bit rate                    : 384 Kbps
Channel(s)                  : 6 channels
Channel positions           : Front: L C R, Side: L R, LFE
Sampling rate               : 48.0 KHz
Compression mode            : Lossy
Stream size                 : 334 MiB (11%)
Title                       : Dub | DD 5.1 @ 384 kbps - iTunes
Language                    : Russian
Default                     : Yes
Forced                      : No

Audio #2
ID                          : 3
Format                      : AC-3
Format/Info                 : Audio Coding 3
Mode extension              : CM (complete main)
Format settings, Endianness : Big
Codec ID                    : A_AC3
Duration                    : 2h 1mn
Bit rate mode               : Constant
Bit rate                    : 448 Kbps
Channel(s)                  : 6 channels
Channel positions           : Front: L C R, Side: L R, LFE
Sampling rate               : 48.0 KHz
Compression mode            : Lossy
Stream size                 : 390 MiB (13%)
Title                       : Original | DD 5.1 @ 448 kbps
Language                    : English
Default                     : No
Forced                      : No

Text #1
ID                          : 4
Format                      : UTF-8
Codec ID                    : S_TEXT/UTF8
Codec ID/Info               : UTF-8 Plain Text
Language                    : Russian
Default                     : No
Forced                      : No

Text #2
ID                          : 5
Format                      : UTF-8
Codec ID                    : S_TEXT/UTF8
Codec ID/Info               : UTF-8 Plain Text
Title                       : Full
Language                    : English
Default                     : No
Forced                      : No

Text #3
ID                          : 6
Format                      : UTF-8
Codec ID                    : S_TEXT/UTF8
Codec ID/Info               : UTF-8 Plain Text
Title                       : SDH
Language                    : English
Default                     : No
Forced                      : No

Menu
00:00:00.000                : :(01)00:00:00:000
00:06:06.156                : :(02)00:06:06:156
00:16:59.726                : :(03)00:16:59:726
00:24:51.573                : :(04)00:24:51:573
00:29:10.164                : :(05)00:29:10:164
00:37:29.789                : :(06)00:37:29:789
00:44:41.052                : :(07)00:44:41:052
00:53:03.804                : :(08)00:53:03:804
01:00:06.476                : :(09)01:00:06:476
01:06:58.597                : :(10)01:06:58:597
01:14:35.845                : :(11)01:14:35:845
01:23:04.645                : :(12)01:23:04:645
01:30:08.528                : :(13)01:30:08:528
01:38:18.475                : :(14)01:38:18:475
01:47:52.841                : :(15)01:47:52:841
01:54:33.323                : :(16)01:54:33:323

pb.wtf



Скачать Любовь и милосердие через торрент http://i75.fastpic.ru/big/2015/1121/07/f80ddcf375600ea5d29ff9a7ae8cd907.png Скачать фильм Любовь и милосердие через торрент бесплантно в хорошем качестве Описание: История затворнического автора песен Beach Boys и музыканта Брайана Уилсона, от его успехов с чрезвычайно влиятельными ... 10 10 5
Info! Золотая раздача, скачанное не засчитывается.
Торрент: Зарегистрирован [2015-11-21 18:31] · скачан: 105 раз
Статус: √ проверено
Размер: 2.86 GB
Как cкачать? Как скачать Любовь и милосердие через торрент | qTorrent

28-11-2019 20:33  

Отключить всю рекламу на сайте

    Дорогой пользователь! Огромная просьба, поблагодарите релизера, оцените раздачу и оставьте свои комментарий, если Вы скачали Любовь и милосердие через торрент бесплатно! Внесите свою лепту в развитие PiratBit!
    Комментировать посты могут только пользователи прошедшие не сложную регистрацию
    Показать сообщения:    

    Любовь и милосердие через торрент
    Скачать бесплатно Любовь и милосердие
    Любовь и милосердие скачать торрент
    Любовь и милосердие смотреть онлайн
    Cкачать фильм Любовь и милосердие бесплатно
    Любовь и милосердие скачать торрент в хорошем качестве
    Любовь и милосердие смотреть онлайн бесплатно в хорошем качестве


    Вы не можете начинать темы
    Вы не можете отвечать на сообщения
    Вы не можете редактировать свои сообщения
    Вы не можете удалять свои сообщения
    Вы не можете голосовать в опросах
    Вы не можете прикреплять файлы к сообщениям
    Вы можете скачивать файлы