Ссылка на приватное зеркало всего за 1$. Внимание количество ограничено!!!

iTunes

1+1

iTunes

мы

WEB-DL

1

iTunes

Чернобыль

iTunes

Ральф против интернета

Лицензия

ПШазам

Лицензия

Оно 2

Лицензия

30
pack

Вам бонус

ВАЖНО

!!Акция!!

Alien_RageХит недели

RePack

Resident Evil 21

ИГРА 18+

pack

RePack

jed

!!Акция!!

Alien_Rage

RePack

fifa19

RePack

Assassins Creed: Odyssey

RePack

NEED FOR SPEED™ PAYBACK

3 сезон

9 сезон

Бесстыжие 9 сезон

Все сериалы

все сериалы на PB.wtf

RePack

FAR CRY 5
Ребята, катастрофически не хватает 1900р. для оплаты серверов за Октябрь (всвязи с блокировками трафик упал в 3 раза), 1-2р., выручайте.
  

После жизни / Wandâfuru raifu (Хирокадзу Корээда) [1998, фэнтези, драма, DVDRip, Профессиональный (многоголосый)] pb.wtf

После жизни через торрент pb.wtf

Размер: 1.36 GB | Добавлен: 4 года назад | Торрент скачан:1 раз
Скачать  

21-11-2015 19:32 После жизни Скачать торрент  

После жизни / Wandâfuru raifu
««What is the one memory you would take with you?»»

Год выпуска: 1998
Страна: Япония
Жанр: фэнтези, драма
Продолжительность: 01:58:54
Перевод: Профессиональный (многоголосый)
Режиссер: Хирокадзу Корээда
В ролях:

Арата Иура (Takashi Mochizuki, counsellor), Эрика Ода (Shiori Satonaka, trainee counsellor), Сусуму Тэрадзима (Satoru Kawashima, counsellor), Такаси Найто (Takuro Sugie, counsellor), Кёко Кагава (Kyoko Watanabe, Ichiro's Wife), Кэй Тани (Kennosuke Nakamura, boss), Такэтоси Найто (Ichiro Watanabe, who cannot choose his favourite experience), Тору Юри (Gisuke Shoda, who talks about sex), Юсукэ Исейа (Yusuke Iseya, who refuses to choose his experience), Саяка Ёсино (Kana Yoshino, talks about Disneyland), Казуко Ширакава (Nobuko Amano, who talks about her affair with a married man), Котаро Шига (Kenji Yamamoto, who wants to forget his past)
Описание:
После смерти люди попадают в некое своеобразное чистилище: такие же, как и они, отбывшие в мир иной советники помогают им вспомнить самые впечатляющие моменты земной жизни. Рассказы людей становятся основой некоего фильма.
Но не все люди обладают хорошей памятью. Кто-то вообще ничего не может вспомнить и ему нужно просмотреть видеозапись своей жизни, а кто-то, наоборот, хранит в памяти даже незначительные мелочи...
Мировая премьера: 11 сентября 1998

Качество: DVDRip
Формат: AVI
Видео: DivX 5, 640x400 (1.600), 1276 kbps, 23,976 fps, 0,208 bpp
Аудио №1: MP3 / 2.0 / 48 kHz / 194 kbps (RUS)
Аудио №2: MP3 / 2.0 / 48 kHz / 149 kbps (ENG)

Код:

Полное имя                               : D:\download\Wandâfuru raifu\Wandâfuru raifu.avi
Формат                                   : AVI
Формат/Информация                        : Audio Video Interleave
Размер файла                             : 1,36 Гбайт
Продолжительность                        : 1 ч. 58 м.
Режим общего битрейта                    : Переменный
Общий поток                              : 1641 Кбит/сек
Режиссёр                                 : by DrFilin
Программа кодирования                    : VirtualDubMod 1.5.10.2 (build 2542/release)
Библиотека кодирования                   : VirtualDubMod build 2542/release

Видео
Идентификатор                            : 0
Формат                                   : MPEG-4 Visual
Профиль формата                          : Advanced Simple@L5
Параметр BVOP формата                    : 2
Параметр QPel формата                    : Нет
Параметр GMC формата                     : Без точки перехода
Параметр матрицы формата                 : Default (MPEG)
Идентификатор кодека                     : DX50
Идентификатор кодека/Подсказка           : DivX 5
Продолжительность                        : 1 ч. 58 м.
Битрейт                                  : 1276 Кбит/сек
Ширина                                   : 640 пикселей
Высота                                   : 400 пикселей
Соотношение сторон                       : 16:10
Частота кадров                           : 23,976 кадра/сек
Цветовое пространство                    : YUV
Субдискретизация насыщенности            : 4:2:0
Битовая глубина                          : 8 бит
Тип развёртки                            : Прогрессивная
Метод сжатия                             : С потерями
Бит/(Пиксели*Кадры)                      : 0.208
Размер потока                            : 1,06 Гбайт (78%)
Библиотека кодирования                   : XviD 1.2.0.dev45 (UTC 2006-07-10)

Аудио #1
Идентификатор                            : 1
Формат                                   : MPEG Audio
Версия формата                           : Version 1
Профиль формата                          : Layer 3
Режим                                    : Joint stereo
Расширение режима                        : MS Stereo
Идентификатор кодека                     : 55
Идентификатор кодека/Подсказка           : MP3
Продолжительность                        : 1 ч. 58 м.
Вид битрейта                             : Переменный
Битрейт                                  : 194 Кбит/сек
Минимальный битрейт                      : 128 Кбит/сек
Каналы                                   : 2 канала
Частота                                  : 48,0 КГц
Метод сжатия                             : С потерями
Размер потока                            : 165 Мбайт (12%)
Выравнивание                             : Соединение по промежуткам
Продолжительность промежутка             : 24  мс. (0,58 видеокадр)
Время предзагрузки промежутка            : 94  мс.
Библиотека кодирования                   : LAME3.98r
Настройки программы                      : -m j -V 2 -q 0 -lowpass 18.5 --vbr-new -b 128

Аудио #2
Идентификатор                            : 2
Формат                                   : MPEG Audio
Версия формата                           : Version 1
Профиль формата                          : Layer 3
Режим                                    : Joint stereo
Расширение режима                        : MS Stereo
Идентификатор кодека                     : 55
Идентификатор кодека/Подсказка           : MP3
Продолжительность                        : 1 ч. 58 м.
Вид битрейта                             : Переменный
Битрейт                                  : 149 Кбит/сек
Минимальный битрейт                      : 128 Кбит/сек
Каналы                                   : 2 канала
Частота                                  : 48,0 КГц
Метод сжатия                             : С потерями
Размер потока                            : 127 Мбайт (9%)
Выравнивание                             : Соединение по промежуткам
Продолжительность промежутка             : 24  мс. (0,58 видеокадр)
Время предзагрузки промежутка            : 442  мс.
Библиотека кодирования                   : LAME3.98r
Настройки программы                      : -m j -V 1 -q 0 -lowpass 19 --vbr-new -b 128


скриншот  скриншот  скриншот  скриншот  

Награды фильма:
1998 Приз "ФИПРЕССИ" на МКФ в Сан-Себастьяне
1998 Приз "ЗОЛОТОЙ МОГОЛЬФЬЕ" на МКФ Трех Континентов в Нанте
1998 Приз за "Лучший сценарий" на МКФ в Турине
1999 Приз за "Лучший фильм" и "Лучший сценарий" на МКФ Независимого кино в Буэнос-Айресе
1999 Приз за "Лучшая операторская работа" на МКФ Братьев Манаки
2000 Приз за "Лучшая работа художника" на фестивале Майнити в Токио
pb.wtf



Скачать После жизни через торрент http://pic1.kartinco.top/images/10/vge8d.jpg Скачать фильм После жизни через торрент бесплантно в хорошем качестве Описание: После смерти люди попадают в некое своеобразное чистилище: такие же, как и они, отбывшие в мир иной советники помогают им ... 5 10 1
Торрент: Зарегистрирован [2015-11-21 19:32] · скачан: 1 раз
Статус: √ проверено
Размер: 1.36 GB
Как cкачать? Как скачать После жизни через торрент | qTorrent

28-11-2019 20:33  

Отключить всю рекламу на сайте

21-11-2015 20:34 После жизни Скачать торрент  

не знаю чё меня дёрнуло почитать отзывы о фильме... но заинтересовали очень они. пожалуй заберу. (тут должна быть умная фраза про воспоминания)pb.wtf



    Дорогой пользователь! Огромная просьба, поблагодарите релизера, оцените раздачу и оставьте свои комментарий, если Вы скачали После жизни через торрент бесплатно! Внесите свою лепту в развитие PiratBit!
    Комментировать посты могут только пользователи прошедшие не сложную регистрацию
    Показать сообщения:    

    После жизни через торрент
    Скачать бесплатно После жизни
    После жизни скачать торрент
    После жизни смотреть онлайн
    Cкачать фильм После жизни бесплатно
    После жизни скачать торрент в хорошем качестве
    После жизни смотреть онлайн бесплатно в хорошем качестве


    Вы не можете начинать темы
    Вы не можете отвечать на сообщения
    Вы не можете редактировать свои сообщения
    Вы не можете удалять свои сообщения
    Вы не можете голосовать в опросах
    Вы не можете прикреплять файлы к сообщениям
    Вы можете скачивать файлы