Ссылка на приватное зеркало всего за 1$. Внимание количество ограничено!!!

iTunes

iTunes

iTunes

1

iTunes

iTunes

iTunes

iTunes

iTunes

30
pack

Новость дня

ВАЖНО

!!Акция!!

Alien_RageХит недели

RePack

Resident Evil 21

ИГРА 18+

pack

RePack

jed

!!Акция!!

Alien_Rage

RePack

fifa19

RePack

Assassins Creed: Odyssey

RePack

NEED FOR SPEED™ PAYBACK

4 сезон

9 сезон

Бесстыжие 9 сезон

Все сериалы

все сериалы на PB.wtf

RePack

FAR CRY 5
  

Война полов (Кирилл Кузин) [2015, комедия, WEB-DLRip, [iTunes] pb.wtf

Война полов через торрент pb.wtf

Размер: 1.37 GB | Добавлен: 4 года 6 мес. назад | Торрент скачан:1509 раз
Скачать  

21-11-2015 21:59 Война полов Скачать торрент  


Война полов
««Мужики! Не расслабляйтесь!»»

ИНФОРМАЦИЯ:
Год выпуска:2015
Страна: Россия
Жанр: комедия
Продолжительность: 01:26:14
Перевод: Не требуется [Русский]
Режиссер: Кирилл Кузин

В Ролях:


Харальд Розенстрём (Алексей), Александр Пальчиков (Виталик), Екатерина Кузнецова (Юля), Сабина Ахмедова (Соня), Алексей Демидов (Макс), Марина Федункив (Ирэна Адольфовна), Анатолий Белый, Kristelle, Борис Эстрин, Артем Семакин

Описание:
Что завтра на рассвете с каждым из нас случится, не знает никто. И когда ТРИ наших героя проснулись на необитаемом острове, в компании ДВУХ красивых... но не очень дружелюбных девушек... да еще без воды и еды... Вот тут они и поняли, что жизнь действительно полна сюрпризов!


ТЕХ.ДАННЫЕ:
Качество: WEB-DLRip
Формат: AVI
Видео: XviD, 720x304 (2.35:1), 1786 kbps, 25 fps, 0,327 bpp
Аудио: AC3 / 5.1 / 48 kHz / 384 kbps / 16 bit


General
Complete name : D:\Торенты\V0iNa.P0loV.2015.O.WEB-DLRip.avi
Format : AVI
Format/Info : Audio Video Interleave
File size : 1.37 GiB
Duration : 1h 26mn
Overall bit rate : 2 270 Kbps
Writing application : VirtualDubMod 1.5.10.3 | www.virtualdub-fr.org || (build 2550/release)
Writing library : VirtualDubMod build 2550/release

Video
ID : 0
Format : MPEG-4 Visual
Format profile : Advanced Simple@L5
Format settings, BVOP : 2
Format settings, QPel : No
Format settings, GMC : No warppoints
Format settings, Matrix : Default (MPEG)
Codec ID : XVID
Codec ID/Hint : XviD
Duration : 1h 26mn
Bit rate : 1 787 Kbps
Width : 720 pixels
Height : 304 pixels
Display aspect ratio : 2.35:1
Frame rate : 25.000 fps
Color space : YUV
Chroma subsampling : 4:2:0
Bit depth : 8 bits
Scan type : Progressive
Compression mode : Lossy
Bits/(Pixel*Frame) : 0.327
Stream size : 1.08 GiB (79%)
Writing library : XviD 1.2.1 (UTC 2008-12-04)

Audio
ID : 1
Format : AC-3
Format/Info : Audio Coding 3
Mode extension : CM (complete main)
Codec ID : 2000
Duration : 1h 26mn
Bit rate mode : Constant
Bit rate : 384 Kbps
Channel(s) : 6 channels
Channel positions : Front: L C R, Side: L R, LFE
Sampling rate : 48.0 KHz
Bit depth : 16 bits
Compression mode : Lossy
Stream size : 237 MiB (17%)
Alignment : Split accross interleaves
Скриншоты:

© Оформление by .::Ворон::.
pb.wtf



Скачать Война полов через торрент http://pic.kartinco.top/images/6/ordi9.jpg Скачать фильм Война полов через торрент бесплантно в хорошем качестве Описание: Что завтра на рассвете с каждым из нас случится, не знает никто. И когда ТРИ наших героя проснулись на необитаемом острове, в ... 8.2 10 39
Торрент: Зарегистрирован [2015-11-21 21:59] · скачан: 1 509 раз
Статус: √ проверено
Размер: 1.37 GB
Как cкачать? Как скачать Война полов через торрент | qTorrent

% Раздел Тема Автор DL S | L
Военное дело [ 18.34 GB ] Поля сражений / Champs de bataille [2014-2018 Документальный война история HDTVRip 720p] [VO] killermax2013 Скачать
1 | 0
Наши фильмы (HD, WEB-DL 720p, 1080p) [ 2.97 GB ] Война полов [2015 WEB-DL 1080p Ворон Скачать
1 | 0
Наши новые фильмы 2015 [ 701 MB ] Война полов [2015 SATRip [Русский] Ворон Скачать
1 | 0
Научно-популярные фильмы [ 482 MB ] Война полов. Секс [2010 Документальный SATRip] L_E_X Скачать
1 | 0
Научно-популярные фильмы [ 339 MB ] WikiLeaks: война ложь и видеокассета / WikiLeaks: War Lies and Videotape [2010 Документальный SATRip] МИХА~ Скачать
1 | 0
Научно-популярные фильмы [ 471 MB ] Война полов. Внешность [2010 Документальный SATRip] L_E_X Скачать
1 | 0

28-11-2019 20:33  

Отключить всю рекламу на сайте

21-11-2015 21:59 Война полов Скачать торрент  

Война и мир полов

Не так давно, буквально весной этого года, компания «Энджой» представила вниманию общественности ленту «Женщины против мужчин», где герои перетягивали канат тремя парами на Кубе.

Осенью же этого года, как раз во время холодных дней и проливных дождей на экраны вышла картина уже Кирилла Кузина «Война полов». Во-первых, это выгодный маркетинговый ход. Ведь осенью посмотреть на тепло и свет яркого солнца — это хорошо. Во-вторых, картина хоть и не блещет сценарным открытием, но ленту «Энжджоя» напоминает только перетягиванием того же каната. Но так это ведь тема неисчерпаема. Тем более, тут идёт несколько всё иначе.

Куба Кубой, а необитаемый остров, где по случаю судьбы и воле сценаристов оказались главные герои, всегда таит больше загадочности и некой обречённости. Оно и понятно. Кстати, если посчитать главных действующих лиц на экране, то получается… ну, получается их, конечно, пять, но именно 3+2. «Три плюс два» советская комедия, конечно, более выдающаяся, об этом спора нет. Но «Война полов» Кузина способна разбавить досуг.

В чём главное отличие от «Ж vs. М» — герои не выглядят оскотинившимися. И это хорошо. Фильм становится светлее изнутри. И война та самая уже не является какой-то стервозной. Конечно, это больше для острастки. И, конечно, можно догадаться, чем же всё это закончится. Да даже из трейлера это можно понять.

Харальд Розенстрём, Александр Пальчиков, Алексей Демидов вкупе с Екатериной Кузнецовой и Сабиной Ахмедовой оставляют благоприятное впечатление после просмотра. Есть ещё и Марина Федункив, которой и вовсе доказывать ничего не нужно, она и так состоявшаяся личность. Костюмы героев со времён того самого маскарада становятся главной одеждой героев на острове.

В общем, фильм на удивление приятен. Почему «на удивление»? Думалось, что будет копирка с уже имеющихся лент. Но тут как-то по-своему всё.

7,5 из 10
klassenpb.wtf



22-11-2015 13:03 Война полов Скачать торрент  

Нудятина, неитересное кино.pb.wtf



    Дорогой пользователь! Огромная просьба, поблагодарите релизера, оцените раздачу и оставьте свои комментарий, если Вы скачали Война полов через торрент бесплатно! Внесите свою лепту в развитие PiratBit!
    Комментировать посты могут только пользователи прошедшие не сложную регистрацию
    Показать сообщения:    

    Война полов через торрент
    Скачать бесплатно Война полов
    Война полов скачать торрент
    Война полов смотреть онлайн
    Cкачать фильм Война полов бесплатно
    Война полов скачать торрент в хорошем качестве
    Война полов смотреть онлайн бесплатно в хорошем качестве


    Вы не можете начинать темы
    Вы не можете отвечать на сообщения
    Вы не можете редактировать свои сообщения
    Вы не можете удалять свои сообщения
    Вы не можете голосовать в опросах
    Вы не можете прикреплять файлы к сообщениям
    Вы можете скачивать файлы