Мега распродажа FORZA HORIZON 4 ULTIMATE+ВСЕ DLC+ОНЛАЙН всего за 499р. 349 руб. (супер цена). Внимание количество ограничено!!!

Лицензия

30

iTunes

мы

iTunes

1

1 сезон

Чернобыль

1 сезон

Ральф против интернета

MVO

Покемон. Детектив Пикачу

8 сезон

Игра престолов

iTunes

1+1

ИГРА 18+

pack

ВАЖНО

!!Акция!!

Alien_RageХит недели

RePack

Resident Evil 21
pack

RePack

Metro:Exodus

!!Акция!!

Alien_Rage

RePack

fifa19

RePack

Assassins Creed: Odyssey

RePack

NEED FOR SPEED™ PAYBACK

3 сезон

9 сезон

Бесстыжие 9 сезон

Все сериалы

все сериалы на PB.wtf

RePack

FAR CRY 5
Ребята, катастрофически не хватает 2730р. для оплаты серверов за МАЙ (всвязи с блокировками трафик упал в 3 раза), 1-2р., выручайте.
  

Ак Батыр / Avatar (Джеймс Кэмерон) [Смешной Перевод] [2009 г., пародия, фантастика, боевик, BDRip, VO] pb.wtf

Ак Батыр через торрент pb.wtf

Размер: 2.18 GB | Добавлен: 3 года 7 мес. назад | Торрент скачан:88 раз
Скачать  

22-11-2015 05:43 Ак Батыр Скачать торрент  

Ак Батыр / AvatarГод выпуска: 2009
Страна: США
Жанр: пародия, фантастика, боевик
Продолжительность: 02:19:41
Перевод: Любительский одноголосный [armitage]
Субтитры: отсутствуют

Режиссер: Джеймс Кэмерон

В ролях: Сэм Уортингтон, Зои Салдана, Сигурни Уивер, Стивен Лэнг, Мишель Родригес, Джованни Рибизи, Джоэль Мур, Си Си Эйч Паундер, Уэс Стьюди, Лас Алонсо

Описание: 2020 год. Взрыв на ядерном реакторе слегка нарушил мирную жизнь гдетотамстанского заповедника, и теперь здесь происходят странные вещи. Иностранные миротворческие силы сталкиваются с шестиногими лошадьми, синекожими людьми, радиоактивным кумысом и вездесущими парами ранее неизвестного наркотика. Полковник Сусликов клянется взять под контроль хаос и беспредел. Главным препятствием его планам является не до конца подкупленная пресса в виде 69-ого канала, директором которого назначена жена полковника - Надежда. А пока в семейном очаге Сусликовых тлеет давний конфликт, на базе появляется американский стажер - эколог по образованию, хиппи по мировоззрению и инвалид по жизни.

Доп. информация: Смешной перевод студии Мега-Бобёр. Видеоряд оригинальный

Официальный сайт

Качество: BDRip
Формат: AVI
Видео кодек: XviD
Аудио кодек: AC3
Видео: 720x400 (16:9), 23.976 fps ~ 2 033 Kbps, 0.294 bit/pixel
Аудио: 48 KHz, 2 ch ~ 192 Kb/s

Релиз от:
Общее
Полное имя : Q:\TorF\Ak-Batyr.2014.BDRip.Megabober.avi
Формат : AVI
Формат/Информация : Audio Video Interleave
Профиль формата : OpenDML
Размер файла : 2,18 Гбайт
Продолжительность : 2 ч. 19 м.
Общий поток : 2237 Кбит/сек
Программа кодирования : VirtualDubMod 1.5.10.3 | www.virtualdub-fr.org || (build 2550/release)
Библиотека кодирования : VirtualDubMod build 2550/release

Видео
Идентификатор : 0
Формат : MPEG-4 Visual
Профиль формата : Advanced Simple@L5
Параметр BVOP формата : 1
Параметр QPel формата : Нет
Параметр GMC формата : Без точки перехода
Параметр матрицы формата : Default (MPEG)
Идентификатор кодека : XVID
Идентификатор кодека/Подсказка : XviD
Продолжительность : 2 ч. 19 м.
Битрейт : 2033 Кбит/сек
Ширина : 720 пикселей
Высота : 400 пикселей
Соотношение сторон : 16:9
Частота кадров : 23,976 кадра/сек
Цветовое пространство : YUV
Субдискретизация насыщенности : 4:2:0
Битовая глубина : 8 бит
Тип развёртки : Прогрессивная
Метод сжатия : С потерями
Бит/(Пиксели*Кадры) : 0.294
Размер потока : 1,98 Гбайт (91%)
Библиотека кодирования : XviD 1.2.1 (UTC 2008-12-04)

Аудио
Идентификатор : 1
Формат : AC-3
Формат/Информация : Audio Coding 3
Расширение режима : CM (complete main)
Идентификатор кодека : 2000
Продолжительность : 2 ч. 19 м.
Вид битрейта : Постоянный
Битрейт : 192 Кбит/сек
Каналы : 2 канала
Расположение каналов : Front: L R
Частота : 48,0 КГц
Битовая глубина : 16 бит
Метод сжатия : С потерями
Размер потока : 192 Мбайт (9%)
Выравнивание : Разделение по промежуткам
Продолжительность промежутка : 42 мс. (1,00 видеокадр)
Время предзагрузки промежутка : 500 мс.

pb.wtf



Скачать Ак Батыр через торрент http://i019.radikal.ru/1401/83/945991c33bfe.jpg Скачать фильм Ак Батыр через торрент бесплантно в хорошем качестве Описание: 2020 год. Взрыв на ядерном реакторе слегка нарушил мирную жизнь гдетотамстанского заповедника, и теперь здесь происходят странные ... 7.8 10 4
Info! Золотая раздача, скачанное не засчитывается.
Торрент: Зарегистрирован [2015-11-22 05:43] · скачан: 88 раз
Статус: √ проверено
Размер: 2.18 GB
Как cкачать? Как скачать Ак Батыр через торрент | qTorrent


>> Регистрируемся здесь <<






Отзывы и комментарии о схеме читаем и пишем здесь: ---> Отзывы и комментарии о схеме

Новые благодарочки в телеграм довольных пользователей:
скриншот   скриншот   скриншот   скриншот   скриншот
    Дорогой пользователь! Огромная просьба, поблагодарите релизера, оцените раздачу и оставьте свои комментарий, если Вы скачали Ак Батыр через торрент бесплатно! Внесите свою лепту в развитие PiratBit!
    Комментировать посты могут только пользователи прошедшие не сложную регистрацию
    Показать сообщения:    

    Ак Батыр через торрент
    Скачать бесплатно Ак Батыр
    Ак Батыр скачать торрент
    Ак Батыр смотреть онлайн
    Cкачать фильм Ак Батыр бесплатно
    Ак Батыр скачать торрент в хорошем качестве
    Ак Батыр смотреть онлайн бесплатно в хорошем качестве


    Вы не можете начинать темы
    Вы не можете отвечать на сообщения
    Вы не можете редактировать свои сообщения
    Вы не можете удалять свои сообщения
    Вы не можете голосовать в опросах
    Вы не можете прикреплять файлы к сообщениям
    Вы можете скачивать файлы