1 сезон

1 сезон

iTunes

1

КиноПоиск HD

Кинопоиск HD

iTunes

13

1 сезон

RePack

30

Новинка

ВАЖНО

ИГРА 18+

pack

RePack

MK11
pack

Легкие деньги

RePack

jed

RePack

fifa19

RePack

RDR2

RePack

NEED FOR SPEED™ PAYBACK

4 сезон

9 сезон

Бесстыжие 9 сезон

Все сериалы

все сериалы на PB.wtf

RePack

FAR CRY 5
  
Magnet ссылка

Обитель зла / Resident Evil (Пол У. С. Андерсон) [2002 г., ужасы, боевик, фантастика, HDRip by Dean24] (Дубляж Лицензия) pb.wtf

Обитель зла через торрент pb.wtf

Размер: 1.46 GB | Добавлен: 5 лет 4 мес. назад | Торрент скачан:3 раза
Скачать  

22-11-2015 09:02 Обитель зла Скачать торрент  

Обитель зла / Resident EvilГод выпуска: 2002
Страна: Германия, США
Жанр: ужасы, боевик, фантастика
Продолжительность: 01:40:31
Перевод: Дубляж | Лицензия
Субтитры: Нет

Режиссер: Пол У. С. Андерсон
Продюссер: Пол У. С. Андерсон, Джереми Болт, Бернд Айхингер
Сценарий: Пол У. С. Андерсон

Бюджет: $33 000 000
Премьера в мире: 12 марта 2002



В ролях: Милла Йовович, Мишель Родригес, Эрик Мэбиас, Джеймс Пьюрфой, Мартин Крюз, Колин Сэлмон, Райан МакКласки, Оскар Пирс, Индра Ове, Анна Болт, Татьяна Весёлкина, Елена Борзунова, Денис Беспалый, Валерий Сторожик, Борис Шувалов

Описание: В гигантской подземной лаборатории на волю вырывается опаснейший вирус, мгновенно превращая своих жертв в прожорливых зомби. Достаточно одного их укуса или царапины страшных когтей, чтобы человек стал обезумевшим пожирателем живой плоти.Военные посылают в секретный комплекс, кишащий ужасными мутировавшими животными и голодными монстрами, группу спецназа, к которой присоединяются очаровательная Элис и отважный полицейский Мэтт. У них есть только три часа, чтобы уничтожить вирус до того, как он распространится по всей Земле...

Качество: HDRip | BDRip 720p
Формат: AVI
Видео кодек: XviD
Аудио кодек: AC3
Видео: 704x384 (1.83:1), 23.976 fps, XviD build 50 ~1684 kbps avg, 0.26 bit/pixel
Аудио: 48 kHz, AC3 Dolby Digital, 3/2 (L,C,R,l,r) + LFE ch, ~384 kbps



Автор рипа: Dean24
|
Общее
Полное имя : D:\Мои документы\Фильмы\Сайт\Resident.Evil.HDRip.avi
Формат : AVI
Формат/Информация : Audio Video Interleave
Размер файла : 1,46 Гбайт
Продолжительность : 1 ч. 40 м.
Общий поток : 2078 Кбит/сек
Программа кодирования : VirtualDubMod 1.5.10.3 | www.virtualdub-fr.org || (build 2550/release)
Библиотека кодирования : VirtualDubMod build 2550/release

Видео
Идентификатор : 0
Формат : MPEG-4 Visual
Профиль формата : Advanced Simple@L5
Параметр BVOP формата : 3
Параметр QPel формата : Нет
Параметр GMC формата : Без точки перехода
Параметр матрицы формата : Default (H.263)
Идентификатор кодека : XVID
Идентификатор кодека/Подсказка : XviD
Продолжительность : 1 ч. 40 м.
Битрейт : 1685 Кбит/сек
Ширина : 704 пикселя
Высота : 384 пикселя
Соотношение сторон : 1,85:1
Частота кадров : 23,976 кадра/сек
Цветовое пространство : YUV
Субдискретизация насыщенности : 4:2:0
Битовая глубина : 8 бит
Тип развёртки : Прогрессивная
Метод сжатия : С потерями
Бит/(Пиксели*Кадры) : 0.260
Размер потока : 1,18 Гбайт (81%)
Библиотека кодирования : XviD 1.2.1 (UTC 2008-12-04)

Аудио
Идентификатор : 1
Формат : AC-3
Формат/Информация : Audio Coding 3
Расширение режима : CM (complete main)
Параметр Endianness формата : Big
Идентификатор кодека : 2000
Продолжительность : 1 ч. 40 м.
Вид битрейта : Постоянный
Битрейт : 384 Кбит/сек
Каналы : 6 каналов
Расположение каналов : Front: L C R, Side: L R, LFE
Частота : 48,0 КГц
Битовая глубина : 16 бит
Метод сжатия : С потерями
Размер потока : 276 Мбайт (18%)
Выравнивание : Разделение по промежуткам
Продолжительность промежутка : 42 мс. (1,00 видеокадр)
Время предзагрузки промежутка : 500 мс.

pb.wtf



Скачать Обитель зла через торрент http://img10.lostpic.net/2015/11/22/f1acd193e4a68c5b88fbc0487fcc7139.png Скачать фильм Обитель зла через торрент бесплантно в хорошем качестве Описание: В гигантской подземной лаборатории на волю вырывается опаснейший вирус, мгновенно превращая своих жертв в прожорливых зомби. ... 10 10 12
Info! Серебряная раздача, засчитывается только 50% скачанного.
Торрент: Зарегистрирован [2015-11-22 09:02] · скачан: 3 раз
Статус: √ проверено
Размер: 1.46 GB
Как cкачать? Как скачать Обитель зла через торрент | UTorrent

% Раздел Тема Автор DL S | L
Ultra HD (UHD: 2K, 4K, 8K) — видео сверхвысокой чёткости [ 44.37 GB ] Обитель зла 3 / Resident Evil: Extinction [2007 UHD BDRemux 2160p] DUB [] +AVO [Ю.Живов] +MVO bober100 Скачать
2 | 0
Ultra HD (UHD: 2K, 4K, 8K) — видео сверхвысокой чёткости [ 44.26 GB ] Обитель зла 2: Апокалипсис / Resident Evil 2: Apocalypse [2004 UHD BDRemux 2160p] DUB [] +MVO +DVO+AVO bober100 Скачать
2 | 0
Ultra HD (UHD: 2K, 4K, 8K) — видео сверхвысокой чёткости [ 58.05 GB ] Обитель зла / Resident Evil [2002 UHD BDRemux 2160p] DUB+MVO +2xDVO+4xAVO bober100 Скачать
3 | 0
R.G. Resident & PiratVoice - Фильмы, Видео [ 1.46 GB ] Обитель зла: Возмездие / Resident Evil: Retribution [2012 HDRip ] от R.G. Resident Dean24 Скачать
1 | 0
Фильмы [HD 720p, 1080p] (Хороший звук DUB, MVO) [ 5.55 GB ] Обитель зла: Последняя глава / Resident Evil: The Final Chapter [2016 BDRip-HEVC 1080p ] DUB [] bober100 Скачать
2 | 0
Зарубежные Мультфильмы (BDRip 1080p, 720p, Blu-ray, BD-Remux) [ 2.54 GB ] Обитель зла: Вендетта / Resident Evil: Vendetta [2017 Мультфильм BDRip 1080p-HEVC 10bit ] ADVOKAT69 Скачать
1 | 0
Ultra HD (UHD: 2K, 4K, 8K) [ 38.99 GB ] Обитель зла: Вендетта / Resident Evil: Vendetta [2017 мультфильм UHD BDRemux 2160p] DUB [] [Dolby Vision TV] sheker187 Скачать
1 | 0

28-11-2019 20:33  

Отключить всю рекламу на сайте

    Дорогой пользователь! Огромная просьба, поблагодарите релизера, оцените раздачу и оставьте свои комментарий, если Вы скачали Обитель зла через торрент бесплатно! Внесите свою лепту в развитие PiratBit!
    Комментировать посты могут только пользователи прошедшие не сложную регистрацию
    Показать сообщения:    

    Обитель зла через торрент
    Скачать бесплатно Обитель зла
    Обитель зла скачать торрент
    Обитель зла смотреть онлайн
    Cкачать фильм Обитель зла бесплатно
    Обитель зла скачать торрент в хорошем качестве
    Обитель зла смотреть онлайн бесплатно в хорошем качестве


    Вы не можете начинать темы
    Вы не можете отвечать на сообщения
    Вы не можете редактировать свои сообщения
    Вы не можете удалять свои сообщения
    Вы не можете голосовать в опросах
    Вы не можете прикреплять файлы к сообщениям
    Вы можете скачивать файлы