1 сезон

1 сезон

iTunes

1

КиноПоиск HD

Кинопоиск HD

iTunes

13

1 сезон

RePack

30

Новинка

ВАЖНО

ИГРА 18+

pack

RePack

MK11
pack

Легкие деньги

RePack

jed

RePack

fifa19

RePack

RDR2

RePack

NEED FOR SPEED™ PAYBACK

4 сезон

9 сезон

Бесстыжие 9 сезон

Все сериалы

все сериалы на PB.wtf

RePack

FAR CRY 5
  
Magnet ссылка

Обитель зла 2: Апокалипсис / Resident Evil: Apocalypse (Александр Уитт) [2004 г., ужасы, фантастика, боевик, триллер, HDRip by Dean24] (Дубляж Лицензия) pb.wtf

Обитель зла 2: Апокалипсис через торрент pb.wtf

Размер: 1.46 GB | Добавлен: 5 лет 4 мес. назад | Торрент скачан:20 раз
Скачать  

22-11-2015 11:04 Обитель зла 2: Апокалипсис Скачать торрент  

Обитель зла 2: Апокалипсис / Resident Evil: ApocalypseГод выпуска: 2004
Страна: Германия, Франция, Великобритания, Канада, США
Жанр: ужасы, фантастика, боевик, триллер
Продолжительность: 01:33:48
Перевод: Дубляж | Лицензия
Субтитры: Нет

Режиссер: Александр Уитт
Продюссер: Пол У. С. Андерсон, Джереми Болт, Дон Кармоди
Сценарий: Пол У. С. Андерсон

Бюджет: $45 000 000
Премьера в мире: 10 сентября 2004



В ролях: Милла Йовович, Сиенна Гиллори, Одед Фер, Томас Кречман, Софи Вавасо, Разаак Адоти, Джаред Харрис, Майк Эппс, Сандрин Холт, Мэттью Дж. Тейлор, Ольга Плетнёва, Любовь Германова, Игорь Тарадайкин, Вячеслав Баранов, Олег Куценко

Описание: Действие картины разворачивается на улицах печально известного Ракун-сити, города, контролируемого могущественной корпорацией «Амбрелла».После бактериологической катастрофы все жители стали медленно превращаться в зомби, а те немногочисленные граждане, чей разум ещё не был до конца изъеден ужасным вирусом, доживали свои последние дни в атмосфере страха и желания скорейшей смерти...

Качество: HDRip | BDRip 720p
Формат: AVI
Видео кодек: XviD
Аудио кодек: AC3
Видео: 720x304 (2.37:1), 23.976 fps, XviD build 50 ~1834 kbps avg, 0.35 bit/pixel
Аудио: 48 kHz, AC3 Dolby Digital, 3/2 (L,C,R,l,r) + LFE ch, ~384 kbps



Автор рипа: Dean24
|
Общее
Полное имя : D:\Мои документы\Фильмы\Сайт\Resident.Evil.Apocalypse.HDRip.avi
Формат : AVI
Формат/Информация : Audio Video Interleave
Размер файла : 1,46 Гбайт
Продолжительность : 1 ч. 33 м.
Общий поток : 2228 Кбит/сек
Программа кодирования : VirtualDubMod 1.5.10.3 | www.virtualdub-fr.org || (build 2550/release)
Библиотека кодирования : VirtualDubMod build 2550/release

Видео
Идентификатор : 0
Формат : MPEG-4 Visual
Профиль формата : Advanced Simple@L5
Параметр BVOP формата : 3
Параметр QPel формата : Нет
Параметр GMC формата : Без точки перехода
Параметр матрицы формата : Default (H.263)
Идентификатор кодека : XVID
Идентификатор кодека/Подсказка : XviD
Продолжительность : 1 ч. 33 м.
Битрейт : 1835 Кбит/сек
Ширина : 720 пикселей
Высота : 304 пикселя
Соотношение сторон : 2,35:1
Частота кадров : 23,976 кадра/сек
Цветовое пространство : YUV
Субдискретизация насыщенности : 4:2:0
Битовая глубина : 8 бит
Тип развёртки : Прогрессивная
Метод сжатия : С потерями
Бит/(Пиксели*Кадры) : 0.350
Размер потока : 1,20 Гбайт (82%)
Библиотека кодирования : XviD 1.2.1 (UTC 2008-12-04)

Аудио
Идентификатор : 1
Формат : AC-3
Формат/Информация : Audio Coding 3
Расширение режима : CM (complete main)
Параметр Endianness формата : Big
Идентификатор кодека : 2000
Продолжительность : 1 ч. 33 м.
Вид битрейта : Постоянный
Битрейт : 384 Кбит/сек
Каналы : 6 каналов
Расположение каналов : Front: L C R, Side: L R, LFE
Частота : 48,0 КГц
Битовая глубина : 16 бит
Метод сжатия : С потерями
Размер потока : 258 Мбайт (17%)
Выравнивание : Разделение по промежуткам
Продолжительность промежутка : 42 мс. (1,00 видеокадр)
Время предзагрузки промежутка : 500 мс.

pb.wtf



Скачать Обитель зла 2: Апокалипсис через торрент http://i76.fastpic.ru/big/2015/1122/ca/b92915ca99e5e57a8a6fda6659afffca.png Скачать фильм Обитель зла 2: Апокалипсис через торрент бесплантно в хорошем качестве Описание: Действие картины разворачивается на улицах печально известного Ракун-сити, города, контролируемого могущественной корпорацией ... 9 10 9
Info! Серебряная раздача, засчитывается только 50% скачанного.
Торрент: Зарегистрирован [2015-11-22 11:04] · скачан: 20 раз
Статус: √ проверено
Размер: 1.46 GB
Как cкачать? Как скачать Обитель зла 2: Апокалипсис через торрент | UTorrent

% Раздел Тема Автор DL S | L
Ultra HD (UHD: 2K, 4K, 8K) — видео сверхвысокой чёткости [ 44.26 GB ] Обитель зла 2: Апокалипсис / Resident Evil 2: Apocalypse [2004 UHD BDRemux 2160p] DUB [] +MVO +DVO+AVO bober100 Скачать
2 | 0
Фильмы (Blu-ray, BD-Remux, HDDVD) [ 17.34 GB ] Обитель зла 2: Апокалипсис / Resident Evil: Apocalypse [2004 BDRemux 1080p] Extended Cut / DUB AVO VO Russian Mafia Скачать
1 | 0
Фильмы 2001-2005 [ 1.46 GB ] Обитель Зла 2: Апокалипсис / Resident Evil: Apocalypse [2004 BDRip] 220v0lt Скачать
1 | 0

28-11-2019 20:33  

Отключить всю рекламу на сайте

22-11-2015 11:06 Обитель зла 2: Апокалипсис Скачать торрент  

    Дорогой пользователь! Огромная просьба, поблагодарите релизера, оцените раздачу и оставьте свои комментарий, если Вы скачали Обитель зла 2: Апокалипсис через торрент бесплатно! Внесите свою лепту в развитие PiratBit!
    Комментировать посты могут только пользователи прошедшие не сложную регистрацию
    Показать сообщения:    

    Обитель зла 2: Апокалипсис через торрент
    Скачать бесплатно Обитель зла 2: Апокалипсис
    Обитель зла 2: Апокалипсис скачать торрент
    Обитель зла 2: Апокалипсис смотреть онлайн
    Cкачать фильм Обитель зла 2: Апокалипсис бесплатно
    Обитель зла 2: Апокалипсис скачать торрент в хорошем качестве
    Обитель зла 2: Апокалипсис смотреть онлайн бесплатно в хорошем качестве


    Вы не можете начинать темы
    Вы не можете отвечать на сообщения
    Вы не можете редактировать свои сообщения
    Вы не можете удалять свои сообщения
    Вы не можете голосовать в опросах
    Вы не можете прикреплять файлы к сообщениям
    Вы можете скачивать файлы