Ссылка на приватное зеркало всего за 1$. Внимание количество ограничено!!!

OK

1+1

iTunes

мы

OK

1

WEB-DLRip

Джокер

Пифагор

Ведьмак / The Witcher сериал

Лицензия

ПШазам

ОК

Оно 2

iTunes

30
pack

Вам бонус

ВАЖНО

!!Акция!!

Alien_RageХит недели

RePack

Resident Evil 21

ИГРА 18+

pack

RePack

jed

RePack

fifa19

RePack

Assassins Creed: Odyssey

RePack

NEED FOR SPEED™ PAYBACK

4 сезон

9 сезон

Бесстыжие 9 сезон

Все сериалы

все сериалы на PB.wtf

RePack

FAR CRY 5
  

Посланники / The Messengers / Сезон: 01 / Серии: 1-13 (13) (Дуан Кларк, Гай Норман Би, Джеймс Л. Конуэй) [2015 г., фантастика, WEB-DLRip, Профессиональный (многоголосый) [BaibaKo] + Original pb.wtf

Посланники через торрент pb.wtf

Размер: 7.06 GB | Добавлен: 4 года 2 мес. назад | Торрент скачан:75 раз
Скачать  

22-11-2015 13:53 Посланники Скачать торрент  

Посланники / The Messengers
Год выпуска: 2015
Страна: США
Жанр: фантастика
Продолжительность: ~00:42:00 серия
Перевод: Профессиональный (многоголосый) - BaibaKo

Режиссер: Дуан Кларк, Гай Норман Би, Джеймс Л. Конуэй

Премьера в мире: 17 апреля 2015



В ролях: Шантель Ван Сантен, София Блэк-Д’Элиа, Джоэл Кортни, Дж.Д. Пардо, Джон Флетчер, Анна Диоп, Диого Моргадо и др.

Описание: Когда таинственный объект падает на Землю, несколько незнакомцев умирают от энергетического импульса — но затем просыпаются и узнают, что ответственны за предотвращение грядущего Апокалипсиса.

Качество: WEB-DLRip
Формат: AVI
Видео кодек: XviD
Аудио кодек: MP3
Видео: 720x400 (1.80:1), 23.976 fps, XviD build 50 ~1509 kbps avg, 0.17 bit/pixel
Аудио#1 Rus: 48 kHz, MPEG Layer 3, 2 ch, 192 kb/s - многоголосый закадровый
Аудио#2 Eng: 48 kHz, MPEG Layer 3, 2 ch, 192.00 kbps - оригинал

General
Complete name : C:\Users\tut\Desktop\закаченое\The Messengers s01.BaibaKo.tv\The.Messengers.s01e01.WEB-DLRip.XviD.Rus.Eng.BaibaKo.tv.avi
Format : AVI
Format/Info : Audio Video Interleave
File size : 573 MiB
Duration : 42mn 2s
Overall bit rate : 1 907 Kbps
Writing application : VirtualDubMod 1.5.10.2 (build 2540/release)
Writing library : VirtualDubMod build 2540/release

Video
ID : 0
Format : MPEG-4 Visual
Format profile : Advanced Simple@L5
Format settings, BVOP : 2
Format settings, QPel : No
Format settings, GMC : No warppoints
Format settings, Matrix : Default (H.263)
Codec ID : XVID
Codec ID/Hint : XviD
Duration : 42mn 2s
Bit rate : 1 509 Kbps
Width : 720 pixels
Height : 400 pixels
Display aspect ratio : 16:9
Frame rate : 23.976 fps
Color space : YUV
Chroma subsampling : 4:2:0
Bit depth : 8 bits
Scan type : Progressive
Compression mode : Lossy
Bits/(Pixel*Frame) : 0.219
Stream size : 454 MiB (79%)
Writing library : XviD 1.2.1 (UTC 2008-12-04)

Audio #1
ID : 1
Format : MPEG Audio
Format version : Version 1
Format profile : Layer 3
Mode : Joint stereo
Mode extension : MS Stereo
Codec ID : 55
Codec ID/Hint : MP3
Duration : 42mn 2s
Bit rate mode : Constant
Bit rate : 192 Kbps
Channel(s) : 2 channels
Sampling rate : 48.0 KHz
Compression mode : Lossy
Stream size : 57.7 MiB (10%)
Alignment : Aligned on interleaves
Interleave, duration : 42 ms (1.00 video frame)
Interleave, preload duratio : 504 ms

Audio #2
ID : 2
Format : MPEG Audio
Format version : Version 1
Format profile : Layer 3
Mode : Joint stereo
Mode extension : MS Stereo
Codec ID : 55
Codec ID/Hint : MP3
Duration : 42mn 2s
Bit rate mode : Constant
Bit rate : 192 Kbps
Channel(s) : 2 channels
Sampling rate : 48.0 KHz
Compression mode : Lossy
Stream size : 57.7 MiB (10%)
Alignment : Aligned on interleaves
Interleave, duration : 42 ms (1.00 video frame)
Interleave, preload duratio : 504 ms[/code]

pb.wtf



Скачать Посланники через торрент http://pic1.kartinco.top/images/10/79ku7.jpg Скачать фильм Посланники через торрент бесплантно в хорошем качестве Описание: Когда таинственный объект падает на Землю, несколько незнакомцев умирают от энергетического импульса — но затем просыпаются и ... 7 10 3
Торрент: Зарегистрирован [2015-11-22 13:53] · скачан: 75 раз
Статус: √ проверено
Размер: 7.06 GB
Как cкачать? Как скачать Посланники через торрент | qTorrent

% Раздел Тема Автор DL S | L
Зарубежные сериалы [ 6.97 GB ] Посланники / The Messengers / Сезон: 01 / Серии: 1-13 [2015 WEB-DLRip [NewStudio] + Original Serejechka Скачать
1 | 0

28-11-2019 20:33  

Отключить всю рекламу на сайте

    Дорогой пользователь! Огромная просьба, поблагодарите релизера, оцените раздачу и оставьте свои комментарий, если Вы скачали Посланники через торрент бесплатно! Внесите свою лепту в развитие PiratBit!
    Комментировать посты могут только пользователи прошедшие не сложную регистрацию
    Показать сообщения:    

    Посланники через торрент
    Скачать бесплатно Посланники
    Посланники скачать торрент
    Посланники смотреть онлайн
    Cкачать фильм Посланники бесплатно
    Посланники скачать торрент в хорошем качестве
    Посланники смотреть онлайн бесплатно в хорошем качестве


    Вы не можете начинать темы
    Вы не можете отвечать на сообщения
    Вы не можете редактировать свои сообщения
    Вы не можете удалять свои сообщения
    Вы не можете голосовать в опросах
    Вы не можете прикреплять файлы к сообщениям
    Вы можете скачивать файлы