Ссылка на приватное зеркало всего за 1$. Внимание количество ограничено!!!

OK

1+1

iTunes

мы

OK

1

WEB-DLRip

Джокер

Пифагор

Ведьмак / The Witcher сериал

Лицензия

ПШазам

ОК

Оно 2

iTunes

30
pack

Вам бонус

ВАЖНО

!!Акция!!

Alien_RageХит недели

RePack

Resident Evil 21

ИГРА 18+

pack

RePack

jed

RePack

fifa19

RePack

Assassins Creed: Odyssey

RePack

NEED FOR SPEED™ PAYBACK

4 сезон

9 сезон

Бесстыжие 9 сезон

Все сериалы

все сериалы на PB.wtf

RePack

FAR CRY 5
  

Обитель зла 4: Жизнь после смерти / Resident Evil: Afterlife (Пол У. С. Андерсон) [2010 г., ужасы, фантастика, боевик, приключения, HDRip by Dean24] (Дубляж Лицензия) pb.wtf

Обитель зла 4: Жизнь после смерти через торрент pb.wtf

Размер: 1.46 GB | Добавлен: 4 года 2 мес. назад | Торрент скачан:44 раза
Скачать  

22-11-2015 13:58 Обитель зла 4: Жизнь после смерти Скачать торрент  

Обитель зла 4: Жизнь после смерти / Resident Evil: AfterlifeГод выпуска: 2010
Страна: Германия, Франция, США, Канада
Жанр: ужасы, фантастика, боевик, приключения
Продолжительность: 01:36:52
Перевод: Дубляж | Лицензия
Субтитры: Нет

Режиссер: Пол У. С. Андерсон
Продюссер: Пол У. С. Андерсон, Джереми Болт, Дон Кармоди
Сценарий: Пол У. С. Андерсон

Бюджет: $60 000 000
Премьера в мире: 2 сентября 2010



В ролях: Милла Йовович, Эли Лартер, Вентворт Миллер, Борис Коджо, Ким Коутс, Шон Робертс, Серхио Перис-Менчета, Спенсер Лок, Сиенна Гиллори, Кейси Барнфилд, Ирина Киреева, Сергей Быстрицкий, Владислав Копп, Никита Прозоровский, Юрий Деркач

Описание: Элис продолжает свой путь в мире, поражённом вирусной инфекцией, превращающей людей в нежить. Героиня ищет оставшихся в живых, чтобы вывести их в безопасное место. Её смертельная битва с корпорацией Амбрелла выходит на новый уровень...

Качество: HDRip | BDRip 720p
Формат: AVI
Видео кодек: XviD
Аудио кодек: AC3
Видео: 720x304 (2.37:1), 23.976 fps, XviD build 50 ~1759 kbps avg, 0.34 bit/pixel
Аудио: 48 kHz, AC3 Dolby Digital, 3/2 (L,C,R,l,r) + LFE ch, ~384 kbps



Автор рипа: Dean24
|
Общее
Полное имя : D:\Мои документы\Фильмы\Сайт\Resident.Evil.Afterlife.HDRip.avi
Формат : AVI
Формат/Информация : Audio Video Interleave
Размер файла : 1,46 Гбайт
Продолжительность : 1 ч. 36 м.
Общий поток : 2153 Кбит/сек
Программа кодирования : VirtualDubMod 1.5.10.3 | www.virtualdub-fr.org || (build 2550/release)
Библиотека кодирования : VirtualDubMod build 2550/release

Видео
Идентификатор : 0
Формат : MPEG-4 Visual
Профиль формата : Advanced Simple@L5
Параметр BVOP формата : 3
Параметр QPel формата : Нет
Параметр GMC формата : Без точки перехода
Параметр матрицы формата : Default (H.263)
Идентификатор кодека : XVID
Идентификатор кодека/Подсказка : XviD
Продолжительность : 1 ч. 36 м.
Битрейт : 1760 Кбит/сек
Ширина : 720 пикселей
Высота : 304 пикселя
Соотношение сторон : 2,35:1
Частота кадров : 23,976 кадра/сек
Цветовое пространство : YUV
Субдискретизация насыщенности : 4:2:0
Битовая глубина : 8 бит
Тип развёртки : Прогрессивная
Метод сжатия : С потерями
Бит/(Пиксели*Кадры) : 0.335
Размер потока : 1,19 Гбайт (82%)
Библиотека кодирования : XviD 1.2.1 (UTC 2008-12-04)

Аудио
Идентификатор : 1
Формат : AC-3
Формат/Информация : Audio Coding 3
Расширение режима : CM (complete main)
Параметр Endianness формата : Big
Идентификатор кодека : 2000
Продолжительность : 1 ч. 36 м.
Вид битрейта : Постоянный
Битрейт : 384 Кбит/сек
Каналы : 6 каналов
Расположение каналов : Front: L C R, Side: L R, LFE
Частота : 48,0 КГц
Битовая глубина : 16 бит
Метод сжатия : С потерями
Размер потока : 266 Мбайт (18%)
Выравнивание : Разделение по промежуткам
Продолжительность промежутка : 42 мс. (1,00 видеокадр)
Время предзагрузки промежутка : 500 мс.

pb.wtf



Скачать Обитель зла 4: Жизнь после смерти через торрент http://i75.fastpic.ru/big/2015/1122/a7/35f8a0b4b7eb3c34bff8577156ff57a7.png Скачать фильм Обитель зла 4: Жизнь после смерти через торрент бесплантно в хорошем качестве Описание: Элис продолжает свой путь в мире, поражённом вирусной инфекцией, превращающей людей в нежить. Героиня ищет оставшихся в живых, ... 10 10 8
Info! Серебряная раздача, засчитывается только 50% скачанного.
Торрент: Зарегистрирован [2015-11-22 13:58] · скачан: 44 раз
Статус: √ проверено
Размер: 1.46 GB
Как cкачать? Как скачать Обитель зла 4: Жизнь после смерти через торрент | qTorrent

% Раздел Тема Автор DL S | L
Ultra HD (UHD: 2K, 4K, 8K) — видео сверхвысокой чёткости [ 26.07 GB ] Обитель зла 4: Жизнь после смерти / Resident Evil: Afterlife [2010 UHD WEBRip 2160p] - [] sheker187 Скачать
1 | 0
Фильмы 2010 [ 1.46 GB ] Обитель зла 4: Жизнь после смерти / Resident Evil: Afterlife [2010 HDRip] [VO] killermax2013 Скачать
1 | 0
Фильмы [HD 720p, 1080p] (Хороший звук DUB, MVO) [ 8.24 GB ] Обитель зла 4: Жизнь после смерти / Resident Evil: Afterlife [2010 BDRip ] -LoRDaN- Скачать
1 | 0
3D Фильмы [ 6.13 GB ] Обитель зла 4: Жизнь после смерти 3Д / Resident Evil: Afterlife 3D [2010 BDRip 1080p] Anaglyph / Анаглиф BAM_Margera Скачать
1 | 0
3D Фильмы [ 4.15 GB ] Обитель зла 4: Жизнь после смерти 3Д / Resident Evil: Afterlife 3D 2010 BDrip 720p med'gold OverUnder slaventi-69 Скачать
1 | 0
3D Фильмы [ 5.94 GB ] Обитель зла 4: Жизнь после смерти 3Д / Resident Evil: Afterlife 3D [2010 BDRip 1080p DUB + Оригинал] gus82 Скачать
1 | 0
Фильмы 2010 [ 1.75 GB ] Обитель зла 4: Жизнь после смерти / Resident Evil: Afterlife [2010 DVDRip] aspace Скачать
2 | 0

28-11-2019 20:33  

Отключить всю рекламу на сайте

    Дорогой пользователь! Огромная просьба, поблагодарите релизера, оцените раздачу и оставьте свои комментарий, если Вы скачали Обитель зла 4: Жизнь после смерти через торрент бесплатно! Внесите свою лепту в развитие PiratBit!
    Комментировать посты могут только пользователи прошедшие не сложную регистрацию
    Показать сообщения:    

    Обитель зла 4: Жизнь после смерти через торрент
    Скачать бесплатно Обитель зла 4: Жизнь после смерти
    Обитель зла 4: Жизнь после смерти скачать торрент
    Обитель зла 4: Жизнь после смерти смотреть онлайн
    Cкачать фильм Обитель зла 4: Жизнь после смерти бесплатно
    Обитель зла 4: Жизнь после смерти скачать торрент в хорошем качестве
    Обитель зла 4: Жизнь после смерти смотреть онлайн бесплатно в хорошем качестве


    Вы не можете начинать темы
    Вы не можете отвечать на сообщения
    Вы не можете редактировать свои сообщения
    Вы не можете удалять свои сообщения
    Вы не можете голосовать в опросах
    Вы не можете прикреплять файлы к сообщениям
    Вы можете скачивать файлы