Ссылка на приватное зеркало всего за 1$. Внимание количество ограничено!!!

OK

1+1

iTunes

мы

OK

1

WEB-DLRip

Джокер

Пифагор

Ведьмак / The Witcher сериал

iTunes

ПШазам

ОК

Оно 2

iTunes

30
pack

Вам бонус

ВАЖНО

!!Акция!!

Alien_RageХит недели

RePack

Resident Evil 21

ИГРА 18+

pack

RePack

jed

RePack

fifa19

RePack

Assassins Creed: Odyssey

RePack

NEED FOR SPEED™ PAYBACK

4 сезон

9 сезон

Бесстыжие 9 сезон

Все сериалы

все сериалы на PB.wtf

RePack

FAR CRY 5
  

Бегущий в лабиринте: Испытание огнём / Maze Runner: The Scorch Trials (Уэс Болл) [2015, фантастика, боевик, триллер, HDRip-AVC] DUB Лицензия От White Smoke pb.wtf

Бегущий в лабиринте: Испытание огнём через торрент pb.wtf

Раздают: 1 [ 0 KB/s ]
Размер: 1.46 GB | Добавлен: 4 года 2 мес. назад | Торрент скачан:854 раза
Скачать  

22-11-2015 14:06 Бегущий в лабиринте: Испытание огнём Скачать торрент  

Maze Runner: The Scorch Trials
««Лабиринт был всего лишь началом»»


Год выпуска: 2015
Страна: США
Жанр: фантастика, боевик, триллер

Продолжительность: 02:11:42
Перевод: Дубляж - [Лицензия]
Режиссер: Уэс Болл
В ролях:

Дилан О’Брайен (Thomas), Кая Скоделарио (Teresa), Ки Хонг Ли (Minho), Томас Сэнгстер (Newt), Декстер Дарден (Frypan), Алекс Дж. Флорес (Winston), Джейкоб Лофленд (Aris Jones), Роза Салазар (Brenda), Джанкарло Эспозито (Jorge), Патришия Кларксон (Ava Paige), Эйдан Гиллен (Janson), Терри Паркс (Carl (Masked Man))
Описание:
Лабиринт пройден, но Томасу, Терезе, Минхо и прочим глэйдерам не приходится расслабляться. Таинственное руководство ПОРОКА - секретной организации, устроившей гонки на выживание - назначает ребятам новые, смертельно опасные испытания. На сей раз их ждет переход по раскаленной пустыне и встреча с жертвами неизлечимой болезни, которые отличаются буйным нравом и непредсказуемым поведением.
Мировая премьера: 1 сентября 2015

Качество: HDRip-AVC (исх. BDRip 720р) Rip by White Smoke

Формат: MKV
Видео: AVC, 1024x428 (2.40:1), 1140 kbps, 23,976 fps, 0,108 bpp
Аудио: AC3 / 5.1 / 48 kHz / 448 kbps / 16 bit

Код:

General
Unique ID                                : 226855964270641386168486780457829727498 (0xAAAADE9544E8E6E291E10E5AA86AFD0A)
Complete name                            : C:\Maze.Runner.The.Scorch.Trials.2015.HDRip-AVC.by.White Smoke.mkv
Format                                   : Matroska
Format version                           : Version 4 / Version 2
File size                                : 1.46 GiB
Duration                                 : 2h 11mn
Overall bit rate                         : 1 589 Kbps
Movie name                               : \Maze.Runner.The.Scorch.Trials.2015.HDRip-AVC.by.White Smoke.mkv
Encoded date                             : UTC 2015-11-22 13:24:55
Writing application                      : mkvmerge v6.8.0 ('Theme for Great Cities') 64bit built on Mar  2 2014 21:34:26
Writing library                          : libebml v1.3.0 + libmatroska v1.4.1

Video
ID                                       : 1
Format                                   : AVC
Format/Info                              : Advanced Video Codec
Format profile                           : High@L4.1
Format settings, CABAC                   : Yes
Format settings, ReFrames                : 12 frames
Codec ID                                 : V_MPEG4/ISO/AVC
Duration                                 : 2h 11mn
Bit rate                                 : 1 140 Kbps
Width                                    : 1 024 pixels
Height                                   : 428 pixels
Display aspect ratio                     : 2.40:1
Frame rate                               : 23.976 fps
Color space                              : YUV
Chroma subsampling                       : 4:2:0
Bit depth                                : 8 bits
Scan type                                : Progressive
Bits/(Pixel*Frame)                       : 0.108
Stream size                              : 1.02 GiB (70%)
Writing library                          : x264 core 146 r2538 121396c
Encoding settings                        : cabac=1 / ref=12 / deblock=1:-3:-3 / analyse=0x3:0x113 / me=umh / subme=9 / psy=1 / psy_rd=1.00:0.00 / mixed_ref=1 / me_range=32 / chroma_me=1 / trellis=1 / 8x8dct=1 / cqm=0 / deadzone=21,11 / fast_pskip=1 / chroma_qp_offset=-2 / threads=6 / lookahead_threads=1 / sliced_threads=0 / nr=0 / decimate=1 / interlaced=0 / bluray_compat=0 / constrained_intra=0 / bframes=10 / b_pyramid=2 / b_adapt=2 / b_bias=10 / direct=1 / weightb=0 / open_gop=0 / weightp=2 / keyint=240 / keyint_min=23 / scenecut=40 / intra_refresh=0 / rc_lookahead=40 / rc=2pass / mbtree=1 / bitrate=1140 / ratetol=1.0 / qcomp=0.65 / qpmin=0 / qpmax=69 / qpstep=4 / cplxblur=20.0 / qblur=0.5 / ip_ratio=1.40 / aq=1:1.00
Language                                 : English
Default                                  : Yes
Forced                                   : No

Audio
ID                                       : 2
Format                                   : AC-3
Format/Info                              : Audio Coding 3
Mode extension                           : CM (complete main)
Codec ID                                 : A_AC3
Duration                                 : 2h 11mn
Bit rate mode                            : Constant
Bit rate                                 : 448 Kbps
Channel(s)                               : 6 channels
Channel positions                        : Front: L C R, Side: L R, LFE
Sampling rate                            : 48.0 KHz
Bit depth                                : 16 bits
Compression mode                         : Lossy
Stream size                              : 422 MiB (28%)
Default                                  : Yes
Forced                                   : No


© Оформление by White Smoke pb.wtf



Скачать Бегущий в лабиринте: Испытание огнём через торрент http://i2.imageban.ru/out/2015/11/22/22cdaf19d01ee786863815cbaa76096f.png Скачать фильм Бегущий в лабиринте: Испытание огнём через торрент бесплантно в хорошем качестве Описание: Лабиринт пройден, но Томасу, Терезе, Минхо и прочим глэйдерам не приходится расслабляться. Таинственное руководство ПОРОКА - ... 9.6 10 25
Info! Золотая раздача, скачанное не засчитывается.
Торрент: Зарегистрирован [2015-11-22 14:06] · скачан: 854 раз
Статус: √ проверено
Размер: 1.46 GB
Как cкачать? Как скачать Бегущий в лабиринте: Испытание огнём через торрент | qTorrent

28-11-2019 20:33  

Отключить всю рекламу на сайте

    Дорогой пользователь! Огромная просьба, поблагодарите релизера, оцените раздачу и оставьте свои комментарий, если Вы скачали Бегущий в лабиринте: Испытание огнём через торрент бесплатно! Внесите свою лепту в развитие PiratBit!
    Комментировать посты могут только пользователи прошедшие не сложную регистрацию
    Показать сообщения:    

    Бегущий в лабиринте: Испытание огнём через торрент
    Скачать бесплатно Бегущий в лабиринте: Испытание огнём
    Бегущий в лабиринте: Испытание огнём скачать торрент
    Бегущий в лабиринте: Испытание огнём смотреть онлайн
    Cкачать фильм Бегущий в лабиринте: Испытание огнём бесплатно
    Бегущий в лабиринте: Испытание огнём скачать торрент в хорошем качестве
    Бегущий в лабиринте: Испытание огнём смотреть онлайн бесплатно в хорошем качестве


    Вы не можете начинать темы
    Вы не можете отвечать на сообщения
    Вы не можете редактировать свои сообщения
    Вы не можете удалять свои сообщения
    Вы не можете голосовать в опросах
    Вы не можете прикреплять файлы к сообщениям
    Вы можете скачивать файлы