Ссылка на приватное зеркало нашего сайта всего за 1$. Внимание количество ограничено!!!

2 сезон

iTunes

1 сезон

1

iTunes

iTunes

iTunes

1 сезон

RePack

30

ИГРА 18+

pack

ВАЖНО

!!Акция!!

Alien_RageХит недели

RePack

MK11
pack

Забери бонус

RePack

jed

!!Акция!!

Alien_Rage

RePack

fifa19

RePack

Assassins Creed: Odyssey

RePack

NEED FOR SPEED™ PAYBACK

4 сезон

9 сезон

Бесстыжие 9 сезон

Все сериалы

все сериалы на PB.wtf

RePack

FAR CRY 5
  

Погоня за тремя зайцами / Серии: 1-4 из 4 (Алексей Праздников) [2015, иронический детектив, SATRip] pb.wtf

Погоня за тремя зайцами через торрент pb.wtf

Размер: 2.42 GB | Добавлен: 4 года 11 мес. назад | Торрент скачан:109 раз
Скачать  

22-11-2015 16:19 Погоня за тремя зайцами Скачать торрент  

Погоня за тремя зайцами

Год выпуска: 2015
Производство: Россия,ООО «Студия Грин-Фильм» по заказу студии «Телемастер»
Жанр: иронический детектив
Продолжительность: 00:43:00
Субтитры: нет

Режиссёр: Алексей Праздников

В ролях: Алла Юганова, Юлия Такшина, Екатерина Копанова, Александр Макогон, Нодар Джанелидзе, Артур Ваха, Серафима Низовская, Елена Купрашевич, Андрей Чуманов, Ольга Красковская, Андрей Терентьев, Алексей Симонов, Игорь Папылев, Марина Доможирова, Дмитрий Соловьёв (V)

Описание: Отдыхая в лесу, подруги становятся свидетелями убийства и заявляют в полицию. Преступник начинает охотиться за ними: одной присылает отравленный кофе, другой портит тормоза в машине, третью чуть не сбивает на дороге. Расследование приводит героинь в художественную галерею «Райский сад», под прикрытием которой бандиты хитрыми способами переправляют за границу большие ценности. Женщин похищают и запирают на заброшенном заводе... Удастся ли им спастись на этот раз?



Качество: SATRip
Формат: AVI
Видео кодек: XviD
Аудио кодек: AC3
Видео: 720x400 (1.80:1), 25 fps, XviD build 73 ~1805 kbps avg, 0.25 bit/pixel
Аудио: 48 kHz, AC3 Dolby Digital, 2/0 (L,R) ch, ~192 kbps
Общее
Полное имя : F:\ПОГОНЯ ЗА ТРЕМЯ ЗАЙЦАМИ\01 серия.avi
Формат : AVI
Формат/Информация : Audio Video Interleave
Размер файла : 616 Мбайт
Продолжительность : 42 м.
Общий поток : 2008 Кбит/сек
Программа кодирования : Lavf53.19.0

Видео
Идентификатор : 0
Формат : MPEG-4 Visual
Профиль формата : Advanced Simple@L5
Параметр BVOP формата : 1
Параметр QPel формата : Да
Параметр GMC формата : Без точки перехода
Параметр матрицы формата : Default (MPEG)
Идентификатор кодека : XVID
Идентификатор кодека/Подсказка : XviD
Продолжительность : 42 м.
Битрейт : 1805 Кбит/сек
Ширина : 720 пикселей
Высота : 400 пикселей
Соотношение сторон : 16:9
Частота кадров : 25,000 кадров/сек
Цветовое пространство : YUV
Субдискретизация насыщенности : 4:2:0
Битовая глубина : 8 бит
Тип развёртки : Прогрессивная
Метод сжатия : С потерями
Бит/(Пиксели*Кадры) : 0.251
Размер потока : 554 Мбайт (90%)
Библиотека кодирования : XviD 73

Аудио
Идентификатор : 1
Формат : AC-3
Формат/Информация : Audio Coding 3
Расширение режима : CM (complete main)
Параметр Endianness формата : Big
Идентификатор кодека : 2000
Продолжительность : 42 м.
Вид битрейта : Постоянный
Битрейт : 192 Кбит/сек
Каналы : 2 канала
Расположение каналов : Front: L R
Частота : 48,0 КГц
Битовая глубина : 16 бит
Метод сжатия : С потерями
Размер потока : 58,9 Мбайт (10%)
Выравнивание : Соединение по промежуткам
Продолжительность промежутка : 32 мс. (0,80 видеокадр)
Внимание! Раздача ведётся путём добавления новых серий; при каждом добавлении создаётся новый торрент.
Чтобы начать докачку новой серии, пользователям необходимо сделать следующее:
1. Остановить скачивание;
2. Удалить старый торрент у себя из клиента (старые серии удалять не надо);
3. Скачать новый торрент и запустить его у себя в клиенте вместо старого, при этом указать клиенту путь в старую папку куда и должно происходить скачивание новых серий. Ваш клиент при этом должен произвести хеширование (проверку) старой папки и будет докачивать только те серии, которых у вас ещё нет. Старые серии при этом не удаляются, а продолжают раздаваться! Eсли вы уже удалили старые серии, то предотвратить повторную закачку старых серий можно, отжав галочку в соответствующих местах при запуске нового торрента.
Рекламы нет.pb.wtf



Скачать Погоня за тремя зайцами через торрент http://i6.imageban.ru/out/2015/11/22/d7505797c54e52e4120dc4cf95e6a297.jpg Скачать фильм Погоня за тремя зайцами через торрент бесплантно в хорошем качестве Описание: Отдыхая в лесу, подруги становятся свидетелями убийства и заявляют в полицию. Преступник начинает охотиться за ними: одной ... 10 10 4
Торрент: Зарегистрирован [2015-11-22 19:05] · скачан: 109 раз
Статус: √ проверено
Размер: 2.42 GB
Как cкачать? Как скачать Погоня за тремя зайцами через торрент | qTorrent

% Раздел Тема Автор DL S | L
Наши сериалы [ 2.45 GB ] Погоня за тремя зайцами / 1-4 серии из 4 [2015 WEB-DLRip-AVC] bober100 Скачать
1 | 0

28-11-2019 20:33  

Отключить всю рекламу на сайте

    Дорогой пользователь! Огромная просьба, поблагодарите релизера, оцените раздачу и оставьте свои комментарий, если Вы скачали Погоня за тремя зайцами через торрент бесплатно! Внесите свою лепту в развитие PiratBit!
    Комментировать посты могут только пользователи прошедшие не сложную регистрацию
    Показать сообщения:    

    Погоня за тремя зайцами через торрент
    Скачать бесплатно Погоня за тремя зайцами
    Погоня за тремя зайцами скачать торрент
    Погоня за тремя зайцами смотреть онлайн
    Cкачать фильм Погоня за тремя зайцами бесплатно
    Погоня за тремя зайцами скачать торрент в хорошем качестве
    Погоня за тремя зайцами смотреть онлайн бесплатно в хорошем качестве


    Вы не можете начинать темы
    Вы не можете отвечать на сообщения
    Вы не можете редактировать свои сообщения
    Вы не можете удалять свои сообщения
    Вы не можете голосовать в опросах
    Вы не можете прикреплять файлы к сообщениям
    Вы можете скачивать файлы