Ссылка на приватное зеркало нашего сайта всего за 1$. Внимание количество ограничено!!!

2 сезон

iTunes

1 сезон

1

2 сезон

2 сезон

iTunes

1 сезон

RePack

30

Ultimate

ВАЖНО

ИГРА 18+

pack

RePack

MK11
pack

Забери бонус

RePack

jed

!!Акция!!

Alien_Rage

RePack

fifa19

RePack

Assassins Creed: Odyssey

RePack

NEED FOR SPEED™ PAYBACK

4 сезон

9 сезон

Бесстыжие 9 сезон

Все сериалы

все сериалы на PB.wtf

RePack

FAR CRY 5
  

Ворон / The Crow (Алекс Пройас) [1994, фэнтези, боевик, BD Remux] MVO+DUB pb.wtf

Ворон через торрент pb.wtf

Размер: 19.65 GB | Добавлен: 5 лет назад | Торрент скачан:22 раза
Скачать  

22-11-2015 17:15 Ворон Скачать торрент  


Ворон / The Crow
««Darker than the bat»»

ИНФОРМАЦИЯ:
Год выпуска:1994
Страна: США
Жанр: фэнтези, боевик
Продолжительность: 01:41:38
Перевод (1): Профессиональный (двухголосый закадровый) Доп.инфо о переводе НТВ, ТНТ, ТВ3, ТВЦ
Перевод (2): Профессиональный (многоголосый закадровый)
Перевод (3): Профессиональный (дублированный) "Хлопушка"
Перевод (4): Авторский (одноголосый закадровый) Гоблин (отд. файлом)
Перевод (5): Авторский (одноголосый закадровый) Гаврилов (отд. файлом)
Перевод (6): Авторский (одноголосый закадровый) Горчаков (отд. файлом)
Перевод (7): Авторский (одноголосый закадровый) Чадов (отд. файлом)
Cубтитры: немецкие
Режиссер: Алекс Пройас


В Ролях:


Брэндон Ли (Eric Draven), Рошелль Дэвис (Sarah), Эрни Хадсон (Sergeant Albrecht), Майкл Уинкотт (Top Dollar), Бай Лин (Myca), София Шинас (Shelly Webster), Анна Левайн (Darla), Дэвид Патрик Келли (T-Bird), Анхель Давид (Skank), Лоуренс Мэйсон (Tin Tin), Майкл Масси (Funboy), Тони Тодд (Grange)

Описание:
Это была мрачная и страшная ночь. Ночь жуткого праздника Хэллоуин. Банда насильников и убийц, ворвавшись в дом молодой пары, жестоко расправилась с рок-музыкантом Эриком и его невестой Шелли.
Спустя год Эрик Дрэйвен выбирается из могилы и отправляется на поиски убийц. Человек ли он? Или Ворон, жаждущий возмездия?

  • Мировая премьера:11 мая 1994

    ТЕХ.ДАННЫЕ:
    Качество: BD Remux
    Формат: BDAV
    Видео: AVC, 1920x1080 (16:9), 21897 kbps, 23,976 fps, 0,440 bpp
    Аудио №1: английский / DTS-HD / 5.1 / 48 kHz / 1560 kbps / 24 bit (Core: 5.1 / 48 kHz / 1510 kbps / 24 bit)
    Аудио №2: английский / DTS / 2.0 / 48 kHz / 320 kbps / 24 bit
    Аудио №3: русский / AC3 / 2.0 / 48 kHz / 192 kbps / 16 bit || НТВ, ТНТ, ТВ3, ТВЦ
    Аудио №4: русский / AC3 / 5.1 / 48 kHz / 384 kbps / 16 bit || многоголосый закадровый
    Аудио №5: русский / AC3 / 2.0 / 48 kHz / 256 kbps / 16 bit || "Хлопушка"


    General
    ID : 1 (0x1)
    Complete name : D:\Торенты\Раздачи\The.Crow.1994_BDRemux\BDMV\STREAM\00000.m2ts
    Format : BDAV
    Format/Info : Blu-ray Video
    File size : 18.2 GiB
    Duration : 1h 41mn
    Overall bit rate mode : Variable
    Overall bit rate : 25.6 Mbps
    Maximum Overall bit rate : 35.5 Mbps

    Video
    ID : 4113 (0x1011)
    Menu ID : 1 (0x1)
    Format : AVC
    Format/Info : Advanced Video Codec
    Format profile : High@L4.1
    Format settings, CABAC : Yes
    Format settings, ReFrames : 4 frames
    Codec ID : 27
    Duration : 1h 41mn
    Bit rate mode : Variable
    Bit rate : 21.9 Mbps
    Maximum bit rate : 38.0 Mbps
    Width : 1 920 pixels
    Height : 1 080 pixels
    Display aspect ratio : 16:9
    Frame rate : 23.976 fps
    Color space : YUV
    Chroma subsampling : 4:2:0
    Bit depth : 8 bits
    Scan type : Progressive
    Bits/(Pixel*Frame) : 0.440
    Stream size : 15.5 GiB (85%)
    Color primaries : BT.709-5, BT.1361, IEC 61966-2-4, SMPTE RP177
    Transfer characteristics : BT.709-5, BT.1361
    Matrix coefficients : BT.709-5, BT.1361, IEC 61966-2-4 709, SMPTE RP177

    Audio #1
    ID : 4352 (0x1100)
    Menu ID : 1 (0x1)
    Format : DTS
    Format/Info : Digital Theater Systems
    Format profile : MA / Core
    Muxing mode : Stream extension
    Codec ID : 134
    Duration : 1h 41mn
    Bit rate mode : Variable
    Bit rate : 1 561 Kbps / 1 510 Kbps
    Channel(s) : 6 channels
    Channel positions : Front: L C R, Side: L R, LFE
    Sampling rate : 48.0 KHz
    Bit depth : 24 bits
    Compression mode : Lossless / Lossy
    Language : English

    Audio #2
    ID : 4353 (0x1101)
    Menu ID : 1 (0x1)
    Format : DTS
    Format/Info : Digital Theater Systems
    Codec ID : 130
    Duration : 1h 41mn
    Bit rate mode : Constant
    Bit rate : 320 Kbps
    Channel(s) : 2 channels
    Channel positions : Front: L R
    Sampling rate : 48.0 KHz
    Bit depth : 24 bits
    Compression mode : Lossy
    Stream size : 233 MiB (1%)
    Language : English

    Audio #3
    ID : 4354 (0x1102)
    Menu ID : 1 (0x1)
    Format : AC-3
    Format/Info : Audio Coding 3
    Mode extension : CM (complete main)
    Codec ID : 129
    Duration : 1h 41mn
    Bit rate mode : Constant
    Bit rate : 192 Kbps
    Channel(s) : 2 channels
    Channel positions : Front: L R
    Sampling rate : 48.0 KHz
    Bit depth : 16 bits
    Compression mode : Lossy
    Stream size : 140 MiB (1%)
    Language : Russian

    Audio #4
    ID : 4355 (0x1103)
    Menu ID : 1 (0x1)
    Format : AC-3
    Format/Info : Audio Coding 3
    Mode extension : CM (complete main)
    Codec ID : 129
    Duration : 1h 41mn
    Bit rate mode : Constant
    Bit rate : 384 Kbps
    Channel(s) : 6 channels
    Channel positions : Front: L C R, Side: L R, LFE
    Sampling rate : 48.0 KHz
    Bit depth : 16 bits
    Compression mode : Lossy
    Stream size : 279 MiB (1%)
    Language : Russian

    Audio #5
    ID : 4356 (0x1104)
    Menu ID : 1 (0x1)
    Format : AC-3
    Format/Info : Audio Coding 3
    Mode extension : CM (complete main)
    Codec ID : 129
    Duration : 1h 41mn
    Bit rate mode : Constant
    Bit rate : 256 Kbps
    Channel(s) : 2 channels
    Channel positions : Front: L R
    Sampling rate : 48.0 KHz
    Bit depth : 16 bits
    Compression mode : Lossy
    Stream size : 186 MiB (1%)
    Language : Russian
    Скриншоты:

    © Оформление by .::Ворон::.
    pb.wtf



  • Скачать Ворон через торрент http://pic.kartinco.top/images/6/ordi9.jpg Скачать фильм Ворон через торрент бесплантно в хорошем качестве Описание: Это была мрачная и страшная ночь. Ночь жуткого праздника Хэллоуин. Банда насильников и убийц, ворвавшись в дом молодой пары, ... 10 10 9
    Торрент: Зарегистрирован [2015-11-22 17:15] · скачан: 22 раз
    Статус: √ проверено
    Размер: 19.65 GB
    Как cкачать? Как скачать Ворон через торрент | qTorrent

    % Раздел Тема Автор DL S | L
    Фильмы [HD 720p, 1080p] (Хороший звук DUB, MVO) [ 7.24 GB ] Ворон / The Crow [1993 BDRip 1080p HEVC 2x DVO MVO 4х AVO] Мичман37 Скачать
    2 | 0
    Фильмы до 2000 г. [ 2.18 GB ] Ворон / The Crow [1994 комиксы HDRip] AVO + MVO + DUB + AVO Kristian Larsson Скачать
    1 | 0

    28-11-2019 20:33  

    Отключить всю рекламу на сайте

      Дорогой пользователь! Огромная просьба, поблагодарите релизера, оцените раздачу и оставьте свои комментарий, если Вы скачали Ворон через торрент бесплатно! Внесите свою лепту в развитие PiratBit!
      Комментировать посты могут только пользователи прошедшие не сложную регистрацию
      Показать сообщения:    

      Ворон через торрент
      Скачать бесплатно Ворон
      Ворон скачать торрент
      Ворон смотреть онлайн
      Cкачать фильм Ворон бесплатно
      Ворон скачать торрент в хорошем качестве
      Ворон смотреть онлайн бесплатно в хорошем качестве


      Вы не можете начинать темы
      Вы не можете отвечать на сообщения
      Вы не можете редактировать свои сообщения
      Вы не можете удалять свои сообщения
      Вы не можете голосовать в опросах
      Вы не можете прикреплять файлы к сообщениям
      Вы можете скачивать файлы