новый адрес
Ссылка на приватное зеркало всего за 1$. Внимание количество ограничено!!!

iTunes

1+1

iTunes

мы

WEB-DL

1

iTunes

Чернобыль

iTunes

Ральф против интернета

Лицензия

ПШазам

Лицензия

Оно 2

Лицензия

30
pack

Вам бонус

ВАЖНО

!!Акция!!

Alien_RageХит недели

RePack

Resident Evil 21

ИГРА 18+

pack

RePack

jed

!!Акция!!

Alien_Rage

RePack

fifa19

RePack

Assassins Creed: Odyssey

RePack

NEED FOR SPEED™ PAYBACK

3 сезон

9 сезон

Бесстыжие 9 сезон

Все сериалы

все сериалы на PB.wtf

RePack

FAR CRY 5
Ребята, катастрофически не хватает 1900р. для оплаты серверов за Октябрь (всвязи с блокировками трафик упал в 3 раза), 1-2р., выручайте.
  

Мисс Зомби / Miss Zombie (Хироюки Танака) [2013, ужасы, драма, HDTVRip, Любительский (двухголосый) DeadSno & den904] pb.wtf

Мисс Зомби через торрент pb.wtf

Размер: 1.44 GB | Добавлен: 4 года назад | Торрент скачан:1 раз
Скачать  

22-11-2015 18:44 Мисс Зомби Скачать торрент  

Мисс Зомби / Miss Zombie

Год выпуска: 2013
Страна: Япония
Жанр: ужасы, драма
Продолжительность: 01:25:43
Перевод: Любительский (двухголосый) DeadSno & den904
Субтитры: Японские (неотключаемые)
Режиссер: Хироюки Танака
В ролях:

Макото Тогаси (Shizuko), Аяка Комацу (Sara), Тору Тезука (Teramoto), Такая Ямаути, Таро Суруга, Hihio Iwanaga, Окито Сэридзава, Рику Ониси
Описание:
После заражения вирусом, превратившем часть людей в зомби, в обществе появляется новый слой жителей. Внутри своего слоя, зомби разделяются на классы, в зависимости от агрессивности. Тех, что наиболее мирные, предприимчивые люди решают приобщить к труду ради собственной выгоды. И вот, в семью доктора, изучающего возможности подобной интеграции зомби в общество людей, привозят женщину-зомби...
Мировая премьера: 9 сентября 2013

Качество: HDTVRip
Формат: AVI
Видео: Xvid, 720x304 (2.35:1), 2007 kbps, 29,970 fps, 0,306 bpp
Аудио №1: AC3 / 2.0 / 48 kHz / 192 kbps / 16 bit (Русский)
Аудио №2: AC3 / 2.0 / 48 kHz / 192 kbps / 16 bit (Японский)

Код:

General
Complete name                            : D:\download\Miss Zombie (2013) HDTV\Miss.Zombie.2013.HDTVRip.avi
Format                                   : AVI
Format/Info                              : Audio Video Interleave
Format profile                           : OpenDML
File size                                : 1.44 GiB
Duration                                 : 1h 25mn
Overall bit rate                         : 2 412 Kbps
Writing application                      : XviD4PSP 6.0 / 54.29.105

Video
ID                                       : 0
Format                                   : xvid
Codec ID                                 : xvid
Duration                                 : 1h 25mn
Bit rate                                 : 2 007 Kbps
Width                                    : 720 pixels
Height                                   : 304 pixels
Display aspect ratio                     : 2.35:1
Frame rate                               : 29.970 fps
Bits/(Pixel*Frame)                       : 0.306
Stream size                              : 1.20 GiB (83%)

Audio #1
ID                                       : 1
Format                                   : AC-3
Format/Info                              : Audio Coding 3
Mode extension                           : CM (complete main)
Codec ID                                 : 2000
Duration                                 : 1h 25mn
Bit rate mode                            : Constant
Bit rate                                 : 192 Kbps
Channel(s)                               : 2 channels
Channel positions                        : Front: L R
Sampling rate                            : 48.0 KHz
Bit depth                                : 16 bits
Compression mode                         : Lossy
Stream size                              : 118 MiB (8%)
Alignment                                : Aligned on interleaves
Interleave, duration                     : 32 ms (0.96 video frame)

Audio #2
ID                                       : 2
Format                                   : AC-3
Format/Info                              : Audio Coding 3
Mode extension                           : CM (complete main)
Codec ID                                 : 2000
Duration                                 : 1h 25mn
Bit rate mode                            : Constant
Bit rate                                 : 192 Kbps
Channel(s)                               : 2 channels
Channel positions                        : Front: L R
Sampling rate                            : 48.0 KHz
Bit depth                                : 16 bits
Compression mode                         : Lossy
Stream size                              : 118 MiB (8%)
Alignment                                : Aligned on interleaves
Interleave, duration                     : 32 ms (0.96 video frame)


скриншот  скриншот  скриншот  скриншот  
pb.wtf



Скачать Мисс Зомби через торрент http://pic1.kartinco.top/images/10/k76wj.jpg Скачать фильм Мисс Зомби через торрент бесплантно в хорошем качестве Описание: После заражения вирусом, превратившем часть людей в зомби, в обществе появляется новый слой жителей. Внутри своего слоя, зомби ... 5.5 10 2
Торрент: Зарегистрирован [2015-11-22 19:27] · скачан: 1 раз
Статус: √ проверено
Размер: 1.44 GB
Как cкачать? Как скачать Мисс Зомби через торрент | qTorrent



Последний раз редактировалось: schultz (2015-11-22 19:26), всего редактировалось 1 раз

28-11-2019 20:33  

Отключить всю рекламу на сайте

    Дорогой пользователь! Огромная просьба, поблагодарите релизера, оцените раздачу и оставьте свои комментарий, если Вы скачали Мисс Зомби через торрент бесплатно! Внесите свою лепту в развитие PiratBit!
    Комментировать посты могут только пользователи прошедшие не сложную регистрацию
    Показать сообщения:    

    Мисс Зомби через торрент
    Скачать бесплатно Мисс Зомби
    Мисс Зомби скачать торрент
    Мисс Зомби смотреть онлайн
    Cкачать фильм Мисс Зомби бесплатно
    Мисс Зомби скачать торрент в хорошем качестве
    Мисс Зомби смотреть онлайн бесплатно в хорошем качестве


    Вы не можете начинать темы
    Вы не можете отвечать на сообщения
    Вы не можете редактировать свои сообщения
    Вы не можете удалять свои сообщения
    Вы не можете голосовать в опросах
    Вы не можете прикреплять файлы к сообщениям
    Вы можете скачивать файлы