Ссылка на приватное зеркало нашего сайта всего за 1$. Внимание количество ограничено!!!

2 сезон

iTunes

1 сезон

1

iTunes

iTunes

iTunes

1 сезон

RePack

30

ИГРА 18+

pack

ВАЖНО

!!Акция!!

Alien_RageХит недели

RePack

MK11
pack

Забери бонус

RePack

jed

!!Акция!!

Alien_Rage

RePack

fifa19

RePack

Assassins Creed: Odyssey

RePack

NEED FOR SPEED™ PAYBACK

4 сезон

9 сезон

Бесстыжие 9 сезон

Все сериалы

все сериалы на PB.wtf

RePack

FAR CRY 5
  

Погоня за тремя зайцами [01-04 из 04] ( Юрий Тарабанчук) [2015, Иронический детектив, WEB-DL 1080p от Files-x] pb.wtf

Погоня за тремя зайцами через торрент pb.wtf

Размер: 5.14 GB | Добавлен: 4 года 11 мес. назад | Торрент скачан:76 раз
Скачать  

22-11-2015 21:07 Погоня за тремя зайцами Скачать торрент  

Информация о фильме

Оригинальное название: Погоня за тремя зайцами

Год выпуска: 2015

Выпущено: Россия, ТВЦ, ООО «Студия Грин-Фильм» по заказу студии «Телемастер»

Продолжительность: 4 x ~ 00:45:00

Перевод: Не требуется

Жанр: Иронический детектив

Режиссер: Юрий Тарабанчук

В ролях: Александр Макогон, Алексей Симонов, Алла Юганова, Андрей Терентьев, Дмитрий Соловьёв, Екатерина Копанова, Елена Купрашевич, Юлия Такшина

Описание:

Три подруги в желании не плохо провести время в погоне за активным отдыхом направляются в лес – Жанна, Катя и Ирина. Им слегка за тридцать, что располагает определенной свободой в своих желаниях, но есть небольшая деталь которая провоцирует их когда они вместе они всегда становятся объектов ироничных историй и попадают в самые невероятные и смешные ситуации. Героини книжной серии детективов Натальи Александровой прекрасно адаптируются на экранах телеканалов. Телеканал "ТВ Центр" продолжает показывает трилогию о наших знакомых персонажах, которые по сюжету выступают в новой роли детективов любителей.

Файл
Качество: WEB-DL 1080p
Формат: MKV
Видео: MPEG-4 AVC, ~ 4000 Кбит/с, 1920x1080, 25,000 кадров/сек
Аудио: AC3, 2 ch, 192 Кбит/с, 48.0 KHz
Общее
Уникальный идентификатор : 104593736868535609852285983754996128337 (0x4EB0055F251D7AFC03880B958A839A51)
Полное имя : D:\Торенты\Погоня за тремя зайцами .2015.WEB-DL1080р.Files-x\03.Погоня за тремя зайцами .2015.WEB-DL1080р.Files-x.mkv
Формат : Matroska
Версия формата : Version 4 / Version 2
Размер файла : 1,30 Гбайт
Продолжительность : 44 м.
Общий поток : 4195 Кбит/сек
Программа кодирования : Lavf56.25.101
Библиотека кодирования : Lavf56.25.101

Видео
Идентификатор : 1
Формат : AVC
Формат/Информация : Advanced Video Codec
Профиль формата : High@L4.0
Параметр CABAC формата : Да
Параметр ReFrames формата : 3 кадра
Идентификатор кодека : V_MPEG4/ISO/AVC
Продолжительность : 44 м.
Битрейт : 4000 Кбит/сек
Ширина : 1920 пикселей
Высота : 1080 пикселей
Соотношение сторон : 16:9
Режим частоты кадров : Постоянный
Частота кадров : 25,000 кадров/сек
Цветовое пространство : YUV
Субдискретизация насыщенности : 4:2:0
Битовая глубина : 8 бит
Тип развёртки : Прогрессивная
Бит/(Пиксели*Кадры) : 0.077
Размер потока : 1,22 Гбайт (93%)
Библиотека кодирования : x264 core 142 r2389 956c8d8
Настройки программы : cabac=1 / ref=3 / deblock=1:0:0 / analyse=0x3:0x133 / me=umh / subme=7 / psy=1 / psy_rd=1.00:0.00 / mixed_ref=1 / me_range=32 / chroma_me=1 / trellis=2 / 8x8dct=1 / cqm=0 / deadzone=21,11 / fast_pskip=1 / chroma_qp_offset=-2 / threads=12 / lookahead_threads=2 / sliced_threads=0 / nr=0 / decimate=1 / interlaced=0 / bluray_compat=0 / constrained_intra=0 / bframes=0 / weightp=0 / keyint=75 / keyint_min=26 / scenecut=40 / intra_refresh=0 / rc_lookahead=50 / rc=2pass / mbtree=0 / bitrate=4000 / ratetol=1.0 / qcomp=0.20 / qpmin=10 / qpmax=51 / qpstep=4 / cplxblur=20.0 / qblur=0.5 / vbv_maxrate=5000 / vbv_bufsize=5000 / nal_hrd=none / filler=0 / ip_ratio=1.40 / aq=1:1.00
Default : Да
Forced : Нет
Основные цвета : BT.709
Характеристики трансфера : BT.709
Коэффициенты матрицы : BT.709
colour_range : Limited

Аудио
Идентификатор : 2
Формат : AC-3
Формат/Информация : Audio Coding 3
Расширение режима : CM (complete main)
Параметр Endianness формата : Big
Идентификатор кодека : A_AC3
Продолжительность : 44 м.
Вид битрейта : Постоянный
Битрейт : 192 Кбит/сек
Каналы : 2 канала
Расположение каналов : Front: L R
Частота : 44,1 КГц
Битовая глубина : 16 бит
Метод сжатия : С потерями
Размер потока : 61,0 Мбайт (5%)
Язык : unknown
Default : Да
Forced : Нет
pb.wtf



Скачать Погоня за тремя зайцами через торрент http://firepic.org/images/2015-11/22/137bkrzfl6ke.jpg Скачать фильм Погоня за тремя зайцами [01-04 из 04] через торрент бесплантно в хорошем качестве Описание: Три подруги в желании не плохо провести время в погоне за активным отдыхом направляются в лес – Жанна, Катя и Ирина. Им слегка за ... 9.8 10 5
Торрент: Зарегистрирован [2015-11-22 21:07] · скачан: 76 раз
Статус: √ проверено
Размер: 5.14 GB
Как cкачать? Как скачать Погоня за тремя зайцами через торрент | qTorrent

% Раздел Тема Автор DL S | L
Наши сериалы [ 2.45 GB ] Погоня за тремя зайцами / 1-4 серии из 4 [2015 WEB-DLRip-AVC] bober100 Скачать
1 | 0
Наши сериалы [ 2.42 GB ] Погоня за тремя зайцами / Серии: 1-4 из 4 [2015 иронический SATRip] aleksan55 Скачать
1 | 0

28-11-2019 20:33  

Отключить всю рекламу на сайте

    Дорогой пользователь! Огромная просьба, поблагодарите релизера, оцените раздачу и оставьте свои комментарий, если Вы скачали Погоня за тремя зайцами через торрент бесплатно! Внесите свою лепту в развитие PiratBit!
    Комментировать посты могут только пользователи прошедшие не сложную регистрацию
    Показать сообщения:    

    Погоня за тремя зайцами через торрент
    Скачать бесплатно Погоня за тремя зайцами
    Погоня за тремя зайцами скачать торрент
    Погоня за тремя зайцами смотреть онлайн
    Cкачать фильм Погоня за тремя зайцами бесплатно
    Погоня за тремя зайцами скачать торрент в хорошем качестве
    Погоня за тремя зайцами смотреть онлайн бесплатно в хорошем качестве


    Вы не можете начинать темы
    Вы не можете отвечать на сообщения
    Вы не можете редактировать свои сообщения
    Вы не можете удалять свои сообщения
    Вы не можете голосовать в опросах
    Вы не можете прикреплять файлы к сообщениям
    Вы можете скачивать файлы