Ссылка на приватное зеркало нашего сайта всего за 1$. Внимание количество ограничено!!!

2 сезон

iTunes

1 сезон

1

iTunes

iTunes

iTunes

1 сезон

RePack

30

ИГРА 18+

pack

ВАЖНО

!!Акция!!

Alien_RageХит недели

RePack

MK11
pack

Забери бонус

RePack

jed

!!Акция!!

Alien_Rage

RePack

fifa19

RePack

Assassins Creed: Odyssey

RePack

NEED FOR SPEED™ PAYBACK

4 сезон

9 сезон

Бесстыжие 9 сезон

Все сериалы

все сериалы на PB.wtf

RePack

FAR CRY 5
  

Под знаком быка / Sous le signe du taureau (Жиль Гранжье) [1969, драма, BDRip 1080p by msltel] VO pb.wtf

Под знаком быка через торрент pb.wtf

Размер: 8.64 GB | Добавлен: 4 года 11 мес. назад | Торрент скачан:3 раза
Скачать  

23-11-2015 06:47 Под знаком быка Скачать торрент  

Название: Под знаком быка
Оригинальное название: Sous le signe du taureau
Год выпуска: 1969
Страна: Франция
Жанр: драма
Продолжительность: 01:21:58
Перевод: Любительский одноголосый

Режиссёр: Жиль Гранжье

В ролях: Жан Габен, Сюзанн Флон, Колетт Дереаль, Раймон Жером, Фернан Леду, Жак Моно, Альфред Адам, Мишель Оклер, Этьенн Бьерри, Робер Дальбан, Френс Валери

Описание: Неудачные испытания ракеты, изготовленной заводом Рейналя, переполнили чашу терпения кредиторов и поставщиков. Банк отказывается продолжать финансирование научных исследований Альбера Рейналя, пока его завод не будет хотя бы частично перепрофилирован на выпуск более стабильной продукции – бытовой техники и скобяного товара. Не желая превращаться в фабриканта ширпотреба, Рейналь надеется получить поддержку у близких некогда людей – у бывшего одноклассника, бывшей любовницы, бывшего однополчанина. Однако руку помощи Альберу протягивает человек, на которого он, в сущности, и не рассчитывал...



Качество: BDRip 1080p Сравнение с исходником
Формат: MKV
Видео: MPEG-4 AVC, 13.8 Mбит/с, 1792x1080, 24 кадра/с
Аудио 1: русский, AC3, 192 kbps, 2 ch, 48 kHz [любительский одногоголосый, Линда]
Аудио 2: французский, DTS, 768 kbps, 2 ch, 48 kHz [оригинал]
Субтитры: русские (Линда)
Общее
Уникальный идентификатор : 235954203983544069504574028610611606604 (0xB183206F1F6206B1907BB68B286A744C)
Полное имя : D:\Video\Под знаком быка.1969.BDRip.1080p.mkv
Формат : Matroska
Версия формата : Version 4 / Version 2
Размер файла : 8,64 Гбайт
Продолжительность : 1 ч. 21 м.
Общий поток : 15,1 Мбит/сек
Название фильма : BDRip -- STarankov
Дата кодирования : UTC 2015-11-22 10:51:58
Программа кодирования : mkvmerge v8.2.0 ('World of Adventure') 64bit
Библиотека кодирования : libebml v1.3.1 + libmatroska v1.4.2
DURATION : 01:21:01.003000000
NUMBER_OF_FRAMES : 455719
NUMBER_OF_BYTES : 466656320
_STATISTICS_WRITING_APP : mkvmerge v8.2.0 ('World of Adventure') 64bit
_STATISTICS_WRITING_DATE_UTC : 2015-11-22 10:51:58
_STATISTICS_TAGS : BPS DURATION NUMBER_OF_FRAMES NUMBER_OF_BYTES

Видео
Идентификатор : 1
Формат : AVC
Формат/Информация : Advanced Video Codec
Профиль формата : High@L4.1
Параметр CABAC формата : Да
Параметр ReFrames формата : 4 кадра
Идентификатор кодека : V_MPEG4/ISO/AVC
Продолжительность : 1 ч. 21 м.
Битрейт : 13,8 Мбит/сек
Ширина : 1792 пикселя
Высота : 1080 пикселей
Соотношение сторон : 5:3
Режим частоты кадров : Постоянный
Частота кадров : 24,000 кадра/сек
Цветовое пространство : YUV
Субдискретизация насыщенности : 4:2:0
Битовая глубина : 8 бит
Тип развёртки : Прогрессивная
Бит/(Пиксели*Кадры) : 0.298
Размер потока : 7,91 Гбайт (92%)
Библиотека кодирования : x264 core 146 r2538 121396c
Настройки программы : cabac=1 / ref=4 / deblock=1:-1:-1 / analyse=0x3:0x113 / me=umh / subme=10 / psy=1 / psy_rd=1.00:0.15 / mixed_ref=1 / me_range=32 / chroma_me=1 / trellis=2 / 8x8dct=1 / cqm=0 / deadzone=21,11 / fast_pskip=1 / chroma_qp_offset=-3 / threads=6 / lookahead_threads=1 / sliced_threads=0 / nr=0 / decimate=1 / interlaced=0 / bluray_compat=0 / constrained_intra=0 / bframes=10 / b_pyramid=2 / b_adapt=2 / b_bias=0 / direct=1 / weightb=1 / open_gop=0 / weightp=2 / keyint=230 / keyint_min=23 / scenecut=40 / intra_refresh=0 / rc_lookahead=40 / rc=crf / mbtree=0 / crf=18.1 / qcomp=0.60 / qpmin=0 / qpmax=69 / qpstep=4 / vbv_maxrate=40000 / vbv_bufsize=50000 / crf_max=0.0 / nal_hrd=none / filler=0 / ip_ratio=1.40 / pb_ratio=1.30 / aq=1:1.00
Язык : French
Default : Да
Forced : Нет
DURATION : 01:21:01.000000000
NUMBER_OF_FRAMES : 116664
NUMBER_OF_BYTES : 8687950300
_STATISTICS_WRITING_APP : mkvmerge v8.2.0 ('World of Adventure') 64bit
_STATISTICS_WRITING_DATE_UTC : 2015-11-22 10:51:58
_STATISTICS_TAGS : BPS DURATION NUMBER_OF_FRAMES NUMBER_OF_BYTES

Аудио #1
Идентификатор : 2
Формат : AC-3
Формат/Информация : Audio Coding 3
Расширение режима : CM (complete main)
Параметр Endianness формата : Big
Идентификатор кодека : A_AC3
Продолжительность : 1 ч. 21 м.
Вид битрейта : Постоянный
Битрейт : 192 Кбит/сек
Каналы : 2 канала
Расположение каналов : Front: L R
Частота : 48,0 КГц
Метод сжатия : С потерями
Размер потока : 113 Мбайт (1%)
Заголовок : любительский одногоголосый, Линда
Язык : Russian
Default : Да
Forced : Нет

Аудио #2
Идентификатор : 3
Формат : DTS
Формат/Информация : Digital Theater Systems
Режим : 16
Параметр Endianness формата : Big
Идентификатор кодека : A_DTS
Продолжительность : 1 ч. 21 м.
Вид битрейта : Постоянный
Битрейт : 768 Кбит/сек
Каналы : 2 канала
Расположение каналов : Front: L R
Частота : 48,0 КГц
Битовая глубина : 24 бит
Метод сжатия : С потерями
Размер потока : 450 Мбайт (5%)
Заголовок : Original
Язык : French
Default : Нет
Forced : Нет

Текст
Идентификатор : 4
Формат : UTF-8
Идентификатор кодека : S_TEXT/UTF8
Идентификатор кодека/Информация : UTF-8 Plain Text
Заголовок : русский
Язык : Russian
Default : Нет
Forced : Нет
pb.wtf



Скачать Под знаком быка через торрент http://s013.radikal.ru/i322/1511/8b/2dd845686eb4.png Скачать фильм Под знаком быка через торрент бесплантно в хорошем качестве Описание: Неудачные испытания ракеты, изготовленной заводом Рейналя, переполнили чашу терпения кредиторов и поставщиков. Банк отказывается ... 5 10 1
Торрент: Зарегистрирован [2015-11-23 06:47] · скачан: 3 раз
Статус: √ проверено
Размер: 8.64 GB
Как cкачать? Как скачать Под знаком быка через торрент | qTorrent

% Раздел Тема Автор DL S | L
Фильмы [HD 720p, 1080p] (Хороший звук DUB, MVO) [ 3.22 GB ] Под знаком быка / Sous le signe du taureau [1969 BDRip 720p by msltel] VO msltel Скачать
1 | 0
Классика зарубежного кино [ 1.79 GB ] Под знаком быка / Sous le signe du taureau [1969 BDRip AVC by msltel] VO msltel Скачать
1 | 0

28-11-2019 20:33  

Отключить всю рекламу на сайте

    Дорогой пользователь! Огромная просьба, поблагодарите релизера, оцените раздачу и оставьте свои комментарий, если Вы скачали Под знаком быка через торрент бесплатно! Внесите свою лепту в развитие PiratBit!
    Комментировать посты могут только пользователи прошедшие не сложную регистрацию
    Показать сообщения:    

    Под знаком быка через торрент
    Скачать бесплатно Под знаком быка
    Под знаком быка скачать торрент
    Под знаком быка смотреть онлайн
    Cкачать фильм Под знаком быка бесплатно
    Под знаком быка скачать торрент в хорошем качестве
    Под знаком быка смотреть онлайн бесплатно в хорошем качестве


    Вы не можете начинать темы
    Вы не можете отвечать на сообщения
    Вы не можете редактировать свои сообщения
    Вы не можете удалять свои сообщения
    Вы не можете голосовать в опросах
    Вы не можете прикреплять файлы к сообщениям
    Вы можете скачивать файлы