новый адрес пиратбит piratbit
Мега распродажа FORZA HORIZON 4 ULTIMATE+ВСЕ DLC+ОНЛАЙН всего за 499р. 349 руб. (супер цена). Внимание количество ограничено!!!

iTunes

1+1

iTunes

мы

iTunes

1

iTunes

Чернобыль

iTunes

Ральф против интернета

Лицензия

ПШазам

Лицензия

Игра престолов

Лицензия

30
pack

ВАЖНО

!!Акция!!

Alien_RageХит недели

RePack

Resident Evil 21

ИГРА 18+

pack

RePack

Metro:Exodus

!!Акция!!

Alien_Rage

RePack

fifa19

RePack

Assassins Creed: Odyssey

RePack

NEED FOR SPEED™ PAYBACK

3 сезон

9 сезон

Бесстыжие 9 сезон

Все сериалы

все сериалы на PB.wtf

RePack

FAR CRY 5
Ребята, катастрофически не хватает 1900р. для оплаты серверов за Октябрь (всвязи с блокировками трафик упал в 3 раза), 1-2р., выручайте.
  

Правда - хорошо, а счастье лучше (Сергей Женовач, Игорь Ларин) [1951, СССР, драма, мелодрама, комедия, DVDRip от AVP Studio] pb.wtf

Правда - хорошо, а счастье лучше через торрент pb.wtf

Размер: 1.09 GB | Добавлен: 3 года 11 мес. назад | Торрент скачан:23 раза
Скачать  

24-11-2015 08:52 Правда - хорошо, а счастье лучше Скачать торрент  

Правда - хорошо, а счастье лучше
Страна: СССР
Производство: Студия Горького

Жанр: драма, мелодрама, комедия
Год выпуска: 1951
Продолжительность: 02:18:37

Перевод: Не требуется
Cубтитры: нет
Оригинальная аудиодорожка: русский

Режиссер: Сергей Женовач, Игорь Ларин

В ролях:
Николай Рыжов, Евдокия Турчанинова, Валерия Новак, Варвара Рыжова, А. Карцев, Александр Сашин-Никольский, В. Баринова, Дмитрий Павлов, Федор Григорьев...

Описание:
Властная старуха Мавра Тарасовна, мать московского купца Амоса Панфиловича Барабошева, ищет для своей внучки Поликсены жениха-генерала. Но девушка любит приказчика Платона Зыбкина, честного и бедного парня, задолжавшего хозяину двести рублей. Платону грозит долговая тюрьма.
Стараниями няньки Поликсены, решившей помочь влюбленным, в доме появляется новый сторож — отставной унтер-офицер Сила Ерофеевич Грознов, бывший любовник Мавры Тарасовны. Перепуганная тем, что старые грехи станут всем известны, старуха удовлетворяет требования Грознова — уничтожает вексель Платона и разрешает внучке выйти за него замуж.

Источник: DVD9 R5
Качество видео: DVDRip
Формат видео: AVI

Видео: 576x432 (4:3), 25 fps, XviD ~ 987 kbps avg, 0.159 bit/pixel
Аудио: 48 kHz, MP3 2.0, 128 kbps

Раздача от:
Общее
Полное имя : Pravda–horosho,a.schaste.luchshe.1951.DVDRip-1.09_[New-team]_by_AVP_Studio.avi
Формат : AVI
Формат/Информация : Audio Video Interleave
Размер файла : 1,09 Гбайт
Продолжительность : 2 ч. 18 м.
Общий поток : 1125 Кбит/сек
Программа кодирования : VirtualDubMod 1.5.10.3 | www.virtualdub-fr.org || (build 2550/release)
Библиотека кодирования : VirtualDubMod build 2550/release

Видео
Идентификатор : 0
Формат : MPEG-4 Visual
Профиль формата : Advanced Simple@L5
Параметр BVOP формата : 1
Параметр QPel формата : Нет
Параметр GMC формата : Без точки перехода
Параметр матрицы формата : Выборочная
Идентификатор кодека : XVID
Идентификатор кодека/Подсказка : XviD
Продолжительность : 2 ч. 18 м.
Битрейт : 987 Кбит/сек
Ширина : 576 пикселей
Высота : 432 пикселя
Соотношение сторон : 4:3
Частота кадров : 25,000 кадров/сек
Цветовое пространство : YUV
Субдискретизация насыщенности : 4:2:0
Битовая глубина : 8 бит
Тип развёртки : Прогрессивная
Метод сжатия : С потерями
Бит/(Пиксели*Кадры) : 0.159
Размер потока : 979 Мбайт (88%)
Библиотека кодирования : XviD 73

Аудио
Идентификатор : 1
Формат : MPEG Audio
Версия формата : Version 1
Профиль формата : Layer 3
Идентификатор кодека : 55
Идентификатор кодека/Подсказка : MP3
Продолжительность : 2 ч. 18 м.
Вид битрейта : Постоянный
Битрейт : 128 Кбит/сек
Каналы : 2 канала
Частота : 48,0 КГц
Метод сжатия : С потерями
Размер потока : 127 Мбайт (11%)
Выравнивание : Соединение по промежуткам
Продолжительность промежутка : 40 мс. (1,00 видеокадр)
Время предзагрузки промежутка : 504 мс.
Библиотека кодирования : LAME3.99r
Настройки программы : -m s -V 4 -q 2 -lowpass 17 -b 128
pb.wtf



Скачать Правда - хорошо, а счастье лучше через торрент http://s019.radikal.ru/i623/1511/7e/ec689c0e931d.png Скачать фильм Правда - хорошо, а счастье лучше через торрент бесплантно в хорошем качестве Описание:Властная старуха Мавра Тарасовна, мать московского купца Амоса Панфиловича Барабошева, ищет для своей внучки Поликсены ... 10 10 1
Торрент: Зарегистрирован [2015-11-24 08:52] · скачан: 23 раз
Статус: √ проверено
Размер: 1.09 GB
Как cкачать? Как скачать Правда - хорошо, а счастье лучше через торрент | qTorrent

% Раздел Тема Автор DL S | L
Классика [ 217 MB ] Александр Островский - Правда - хорошо а счастье лучше [Федосов Станислав 2007 192 kbps MP3] bober100 Скачать
1 | 0
Кино СССР [ 2.18 GB ] Правда - хорошо а счастье лучше [1951 СССР DVDRip-AVC от AVP Studio] AVP Studio Скачать
1 | 0
Кино СССР [ 2.18 GB ] Правда - хорошо а счастье лучше [1951 СССР DVDRip от AVP Studio] AVP Studio Скачать
1 | 0


>> Регистрируемся здесь <<






Отзывы и комментарии о схеме читаем и пишем здесь: ---> Отзывы и комментарии о схеме

Новые благодарочки в телеграм довольных пользователей:
скриншот   скриншот   скриншот   скриншот   скриншот

24-11-2015 10:26 Правда - хорошо, а счастье лучше Скачать торрент  

pb.wtf



    Дорогой пользователь! Огромная просьба, поблагодарите релизера, оцените раздачу и оставьте свои комментарий, если Вы скачали Правда - хорошо, а счастье лучше через торрент бесплатно! Внесите свою лепту в развитие PiratBit!
    Комментировать посты могут только пользователи прошедшие не сложную регистрацию
    Показать сообщения:    

    Правда - хорошо, а счастье лучше через торрент
    Скачать бесплатно Правда - хорошо, а счастье лучше
    Правда - хорошо, а счастье лучше скачать торрент
    Правда - хорошо, а счастье лучше смотреть онлайн
    Cкачать фильм Правда - хорошо, а счастье лучше бесплатно
    Правда - хорошо, а счастье лучше скачать торрент в хорошем качестве
    Правда - хорошо, а счастье лучше смотреть онлайн бесплатно в хорошем качестве


    Вы не можете начинать темы
    Вы не можете отвечать на сообщения
    Вы не можете редактировать свои сообщения
    Вы не можете удалять свои сообщения
    Вы не можете голосовать в опросах
    Вы не можете прикреплять файлы к сообщениям
    Вы можете скачивать файлы