Ссылка на приватное зеркало нашего сайта всего за 1$. Внимание количество ограничено!!!

2 сезон

iTunes

1 сезон

1

iTunes

iTunes

iTunes

1 сезон

RePack

30

ИГРА 18+

pack

ВАЖНО

!!Акция!!

Alien_RageХит недели

RePack

MK11
pack

Забери бонус

RePack

jed

!!Акция!!

Alien_Rage

RePack

fifa19

RePack

Assassins Creed: Odyssey

RePack

NEED FOR SPEED™ PAYBACK

4 сезон

9 сезон

Бесстыжие 9 сезон

Все сериалы

все сериалы на PB.wtf

RePack

FAR CRY 5
  

Анка с Молдаванки / Серии: 10 из 10 (Владимир Янощук) [2015, Мелодрама, криминал, HDTVRip-AVC] pb.wtf

Анка с Молдаванки через торрент pb.wtf

Размер: 11.46 GB | Добавлен: 4 года 10 мес. назад | Торрент скачан:235 раз
Скачать  

24-11-2015 13:01 Анка с Молдаванки Скачать торрент  

Анка с Молдаванки

Год выпуска: 2015
Производство: Россия, Мотор фильм студия
Жанр: Мелодрама, криминал
Продолжительность: 00:43:00
Субтитры: нет

Режиссёр: Владимир Янощук

В ролях: Екатерина Кузнецова (IV), Антон Шагин, Станислав Бондаренко, Сергей Калантай, Тамара Морозова, Виталий Салий, Валерий Бассэль, Владислав Волк, Юлия Гершаник, Евгений Гиммельфарб, Юрий Глухарев, Анатолий Головань (II), Владимир Лилицкий, Виктор Раду, Леонид Титов (II), Денис Фалюта, Валерий Швец, Игорь Рубашкин, Олег Школьник, Ирина Токарчук, Сергей Юрков

Описание: 1970-е годы, Одесса. Аня Ксенаки – девушка из интеллигентной семьи, однажды знакомится с молодым человеком Аркадием Сотниковым. Вскоре выясняется, что он является главарем одесской банды, промышляющей грабежами. Но криминальная романтика увлекает Аню. Она влюбляется в Сотникова и вместе с ним начинает планировать преступления, проявляя при этом незаурядную выдумку и фантазию. Сотников же после встречи с Аней грабит только для того, чтобы начать новую жизнь.
Участившиеся налеты заставляют бросить на поиски их организатора лучшие силы УГРО. В это время в Одессу возвращается Николай Васильев – сын городского начальника уголовного розыска и первая любовь Ани, с которым ее разлучили в юности. Девушка из семьи грека, имевшая родственников за границей, казалась не лучшей партией восходящей звезде уголовного сыска, и родители отправили Николая в Москву. Теперь волею судьбы Васильев возглавляет поиски Сотникова.Николай идет по следу банды, не подозревая, что одним из инициаторов преступлений является Аня, юношеские чувства к которой, как так и не прошли...



Качество: HDTVRip-AVC
Формат: MKV
Видео кодек: H.264
Аудио кодек: AC3
Видео: MPEG-4 AVC, 1024х576,25fps,3832 Кбит/сек,Bits/Pixel 0.242
Аудио: AC3, 48 kHz, ~192 Kbps, 2 канала
Общее
Уникальный идентификатор : 184358915288900129073336667650934526331 (0x8AB23C4CCE4C25D8B2A7770F8B75517B)
Полное имя : F:\Анка с молдаванки\Анка с молдаванки_01 серия rip by_Aleksan55.mkv
Формат : Matroska
Версия формата : Version 2
Размер файла : 1,16 Гбайт
Продолжительность : 43 м.
Общий поток : 3832 Кбит/сек
Дата кодирования : UTC 2015-11-24 05:24:38
Программа кодирования : mkvmerge v7.8.0 ('River Man') 32bit built on Apr 3 2015 12:11:22
Библиотека кодирования : libebml v1.3.1 + libmatroska v1.4.2

Видео
Идентификатор : 1
Формат : AVC
Формат/Информация : Advanced Video Codec
Профиль формата : High@L4.1
Параметр CABAC формата : Да
Параметр ReFrames формата : 9 кадров
Идентификатор кодека : V_MPEG4/ISO/AVC
Продолжительность : 43 м.
Битрейт : 3563 Кбит/сек
Ширина : 1024 пикселя
Высота : 576 пикселей
Соотношение сторон : 16:9
Режим частоты кадров : Постоянный
Частота кадров : 25,000 кадров/сек
Цветовое пространство : YUV
Субдискретизация насыщенности : 4:2:0
Битовая глубина : 8 бит
Тип развёртки : Прогрессивная
Бит/(Пиксели*Кадры) : 0.242
Размер потока : 1,07 Гбайт (93%)
Библиотека кодирования : x264 core 146 r2538 121396c
Настройки программы : cabac=1 / ref=9 / deblock=1:-2:-2 / analyse=0x3:0x133 / me=umh / subme=9 / psy=1 / psy_rd=1.00:0.00 / mixed_ref=0 / me_range=32 / chroma_me=1 / trellis=2 / 8x8dct=1 / cqm=0 / deadzone=21,11 / fast_pskip=1 / chroma_qp_offset=-2 / threads=2 / lookahead_threads=3 / sliced_threads=0 / nr=0 / decimate=1 / interlaced=0 / bluray_compat=0 / constrained_intra=0 / bframes=9 / b_pyramid=2 / b_adapt=1 / b_bias=0 / direct=1 / weightb=1 / open_gop=0 / weightp=2 / keyint=250 / keyint_min=25 / scenecut=40 / intra_refresh=0 / rc_lookahead=40 / rc=crf / mbtree=1 / crf=18.0 / qcomp=0.60 / qpmin=0 / qpmax=69 / qpstep=4 / ip_ratio=1.40 / aq=1:1.00
Default : Да
Forced : Нет
Цветовой диапазон : Limited
Основные цвета : BT.709
Характеристики трансфера : BT.709
Коэффициенты матрицы : BT.709

Аудио
Идентификатор : 2
Формат : AC-3
Формат/Информация : Audio Coding 3
Расширение режима : CM (complete main)
Параметр Endianness формата : Big
Идентификатор кодека : A_AC3
Продолжительность : 43 м.
Вид битрейта : Постоянный
Битрейт : 192 Кбит/сек
Каналы : 2 канала
Расположение каналов : Front: L R
Частота : 48,0 КГц
Метод сжатия : С потерями
Размер потока : 59,3 Мбайт (5%)
Default : Да
Forced : Нет
Внимание! Раздача ведётся путём добавления новых серий; при каждом добавлении создаётся новый торрент.
Чтобы начать докачку новой серии, пользователям необходимо сделать следующее:
1. Остановить скачивание;
2. Удалить старый торрент у себя из клиента (старые серии удалять не надо);
3. Скачать новый торрент и запустить его у себя в клиенте вместо старого, при этом указать клиенту путь в старую папку куда и должно происходить скачивание новых серий. Ваш клиент при этом должен произвести хеширование (проверку) старой папки и будет докачивать только те серии, которых у вас ещё нет. Старые серии при этом не удаляются, а продолжают раздаваться! Eсли вы уже удалили старые серии, то предотвратить повторную закачку старых серий можно, отжав галочку в соответствующих местах при запуске нового торрента.
Рекламы нет.Добавлена 9-10 серия.Так показал канал РОССИЯ HD.pb.wtf



Скачать Анка с Молдаванки через торрент http://i5.imageban.ru/out/2015/11/24/b3f4bef9362826e3735783639da834db.jpg Скачать фильм Анка с Молдаванки через торрент бесплантно в хорошем качестве Описание: 1970-е годы, Одесса. Аня Ксенаки – девушка из интеллигентной семьи, однажды знакомится с молодым человеком Аркадием Сотниковым. ... 8.4 10 18
Info! Золотая раздача, скачанное не засчитывается.
Торрент: Зарегистрирован [2015-12-01 09:31] · скачан: 235 раз
Статус: √ проверено
Размер: 11.46 GB
Как cкачать? Как скачать Анка с Молдаванки через торрент | qTorrent

% Раздел Тема Автор DL S | L
Наши сериалы [ 8.41 GB ] Анка с Молдаванки / Сезон: 1 / Серии: 1-10 из 10 [2015 Мело WEB-DL 720p] bober100 Скачать
3 | 0
Наши сериалы [ 5.58 GB ] Анка с Молдаванки / Сезон: 1 / Серии: 1-10 из 10 [2015 Мело SATRip] bober100 Скачать
1 | 0
Наши сериалы [ 25.12 GB ] Анка с Молдаванки / Сезон: 1 / Серии: 1-10 из 10 [2015 Мело HDTV 1080i] bober100 Скачать
1 | 0


Последний раз редактировалось: aleksan55 (2015-12-01 09:31), всего редактировалось 4 раз(а)

28-11-2019 20:33  

Отключить всю рекламу на сайте

24-11-2015 18:16 Анка с Молдаванки Скачать торрент  

aleksan55, я озолотил раздачу...в чем дело?pb.wtf



25-11-2015 14:45 Анка с Молдаванки Скачать торрент  

анка партизанкаpb.wtf



25-11-2015 14:49 Анка с Молдаванки Скачать торрент  

Спасибо.pb.wtf



27-11-2015 17:32 Анка с Молдаванки Скачать торрент  

Вроде же еще есть? Или только в галимом качестве?pb.wtf



29-11-2015 18:12 Анка с Молдаванки Скачать торрент  

MalekUA писал(а):

чем тебя MPEG-4 AVC, 1024х576,25fps не устроил?

Я имел ввиду больше серий! Качество МКВ лучше всех!pb.wtf



29-11-2015 18:13 Анка с Молдаванки Скачать торрент  

mrAmerica писал(а):

даже такое г кто-то смотрит

Моя Мама смотрит!pb.wtf



    Дорогой пользователь! Огромная просьба, поблагодарите релизера, оцените раздачу и оставьте свои комментарий, если Вы скачали Анка с Молдаванки через торрент бесплатно! Внесите свою лепту в развитие PiratBit!
    Комментировать посты могут только пользователи прошедшие не сложную регистрацию
    Показать сообщения:    

    Анка с Молдаванки через торрент
    Скачать бесплатно Анка с Молдаванки
    Анка с Молдаванки скачать торрент
    Анка с Молдаванки смотреть онлайн
    Cкачать фильм Анка с Молдаванки бесплатно
    Анка с Молдаванки скачать торрент в хорошем качестве
    Анка с Молдаванки смотреть онлайн бесплатно в хорошем качестве


    Вы не можете начинать темы
    Вы не можете отвечать на сообщения
    Вы не можете редактировать свои сообщения
    Вы не можете удалять свои сообщения
    Вы не можете голосовать в опросах
    Вы не можете прикреплять файлы к сообщениям
    Вы можете скачивать файлы