новый адрес пиратбит piratbit
Мега распродажа FORZA HORIZON 4 ULTIMATE+ВСЕ DLC+ОНЛАЙН всего за 499р. 349 руб. (супер цена). Внимание количество ограничено!!!

iTunes

1+1

iTunes

мы

iTunes

1

iTunes

Чернобыль

iTunes

Ральф против интернета

Лицензия

ПШазам

Лицензия

Игра престолов

Лицензия

30
pack

ВАЖНО

!!Акция!!

Alien_RageХит недели

RePack

Resident Evil 21

ИГРА 18+

pack

RePack

Metro:Exodus

!!Акция!!

Alien_Rage

RePack

fifa19

RePack

Assassins Creed: Odyssey

RePack

NEED FOR SPEED™ PAYBACK

3 сезон

9 сезон

Бесстыжие 9 сезон

Все сериалы

все сериалы на PB.wtf

RePack

FAR CRY 5
Ребята, катастрофически не хватает 1900р. для оплаты серверов за Октябрь (всвязи с блокировками трафик упал в 3 раза), 1-2р., выручайте.
  

Пржевальский (Сергей Юткевич) [1951, СССР, драма, биография, DVDRip от AVP Studio] pb.wtf

Пржевальский через торрент pb.wtf

Размер: 1.46 GB | Добавлен: 3 года 11 мес. назад | Торрент скачан:25 раз
Скачать  

25-11-2015 08:24 Пржевальский Скачать торрент  

Пржевальский
Страна: СССР
Производство: Мосфильм

Жанр: драма, биография
Год выпуска: 1951
Продолжительность: 01:47:34

Перевод: Не требуется
Cубтитры: нет
Оригинальная аудиодорожка: русский

Режиссер: Сергей Юткевич

В ролях:
Сергей Папов, Всеволод Ларионов, Борис Тенин, Цырен (Цыренжап) Шагжин, Георгий Слабиняк, Николай Комиссаров, Владимир Всеволодов, Николай Свободин, Сергей Мартинсон, Василий Бокарев, Владимир Таскин, Сергей Ценин, Кэн Джен, Тэн Лун, Лян Лен-Дзу, Ван Гуан-Дэ, Пак Чун-Сеп, Ким Дин, Цэдэн Дамдинов, Дагба Дондуков, Петр Николаев...
Полный список актёров

Описание:
Фильм посвящен знаменитому русскому путешественнику Николаю Михайловичу Пржевальскому, руководившему экспедицией в Уссурийский край и четырьмя научными экспедициями в Центральную Азию (1870-1885 гг.).
Пржевальский впервые описал природу Центральной Азии, открыл много хребтов, озер и рек; собрал ценные коллекции растений и животных, впервые описал дикого верблюда, дикую лошадь и тибетского медведя.
Он был похоронен на берегу озера Иссык-Куль (близ нынешнего г. Пржевальска).Там же находится его музей. Память Пржевальского увековечена также путем присвоения его имени открытой им дикой лошади.

Источник: DVD5 R5
Качество видео: DVDRip
Формат видео: AVI

Видео: 688x512 (4:3), 25 fps, XviD ~ 1741 kbps avg, 0.198 bit/pixel
Аудио: 48 kHz, Dolby Digital AC3 2.0, 192 kbps

Раздача от:
Общее
Полное имя : Przhevalskiy.1951.DVDRip_[New-team]_by_AVP_Studio.avi
Формат : AVI
Формат/Информация : Audio Video Interleave
Размер файла : 1,46 Гбайт
Продолжительность : 1 ч. 47 м.
Общий поток : 1943 Кбит/сек
Программа кодирования : VirtualDubMod 1.5.10.3 | www.virtualdub-fr.org || (build 2550/release)
Библиотека кодирования : VirtualDubMod build 2550/release

Видео
Идентификатор : 0
Формат : MPEG-4 Visual
Профиль формата : Advanced Simple@L5
Параметр BVOP формата : 1
Параметр QPel формата : Нет
Параметр GMC формата : Без точки перехода
Параметр матрицы формата : Выборочная
Идентификатор кодека : XVID
Идентификатор кодека/Подсказка : XviD
Продолжительность : 1 ч. 47 м.
Битрейт : 1741 Кбит/сек
Ширина : 688 пикселей
Высота : 512 пикселей
Соотношение сторон : 4:3
Частота кадров : 25,000 кадров/сек
Цветовое пространство : YUV
Субдискретизация насыщенности : 4:2:0
Битовая глубина : 8 бит
Тип развёртки : Прогрессивная
Метод сжатия : С потерями
Бит/(Пиксели*Кадры) : 0.198
Размер потока : 1,31 Гбайт (90%)
Библиотека кодирования : XviD 73

Аудио
Идентификатор : 1
Формат : AC-3
Формат/Информация : Audio Coding 3
Расширение режима : CM (complete main)
Параметр Endianness формата : Big
Идентификатор кодека : 2000
Продолжительность : 1 ч. 47 м.
Вид битрейта : Постоянный
Битрейт : 192 Кбит/сек
Каналы : 2 канала
Расположение каналов : Front: L R
Частота : 48,0 КГц
Метод сжатия : С потерями
Размер потока : 148 Мбайт (10%)
Выравнивание : Разделение по промежуткам
Продолжительность промежутка : 40 мс. (1,00 видеокадр)
Время предзагрузки промежутка : 500 мс
pb.wtf



Скачать Пржевальский через торрент http://s019.radikal.ru/i615/1511/87/bd7fbac4d618.png Скачать фильм Пржевальский через торрент бесплантно в хорошем качестве Описание:Фильм посвящен знаменитому русскому путешественнику Николаю Михайловичу Пржевальскому, руководившему экспедицией в Уссурийский ... 5 10 1
Торрент: Зарегистрирован [2015-11-25 08:24] · скачан: 25 раз
Статус: √ проверено
Размер: 1.46 GB
Как cкачать? Как скачать Пржевальский через торрент | qTorrent

% Раздел Тема Автор DL S | L
Кино СССР [ 1.46 GB ] Пржевальский [1951 СССР биография DVDRip-AVC от AVP Studio] AVP Studio Скачать
1 | 0
Кино СССР [ 746 MB ] Пржевальский [1951 СССР биография DVDRip от AVP Studio] AVP Studio Скачать
1 | 0


>> Регистрируемся здесь <<






Отзывы и комментарии о схеме читаем и пишем здесь: ---> Отзывы и комментарии о схеме

Новые благодарочки в телеграм довольных пользователей:
скриншот   скриншот   скриншот   скриншот   скриншот
    Дорогой пользователь! Огромная просьба, поблагодарите релизера, оцените раздачу и оставьте свои комментарий, если Вы скачали Пржевальский через торрент бесплатно! Внесите свою лепту в развитие PiratBit!
    Комментировать посты могут только пользователи прошедшие не сложную регистрацию
    Показать сообщения:    

    Пржевальский через торрент
    Скачать бесплатно Пржевальский
    Пржевальский скачать торрент
    Пржевальский смотреть онлайн
    Cкачать фильм Пржевальский бесплатно
    Пржевальский скачать торрент в хорошем качестве
    Пржевальский смотреть онлайн бесплатно в хорошем качестве


    Вы не можете начинать темы
    Вы не можете отвечать на сообщения
    Вы не можете редактировать свои сообщения
    Вы не можете удалять свои сообщения
    Вы не можете голосовать в опросах
    Вы не можете прикреплять файлы к сообщениям
    Вы можете скачивать файлы